Zaloguj
Polowanie na Rozpruwacza

American Ripper
Serial, 2017
10,00  głosy: 1Oceń:
Ulubiony
Do obejrzenia
Obejrzany
Ocena IMDB6,4/10
Premiera:
18 października 2017Polska11 lipca 2017
Produkcja:

Dodaj sezon
Jest w serwisieyenxKopiuj nick
yenx

Płeć:
Dołączył:
Punkty: 109464$
Podziękowania: 2366
Posty: 5789
Lektor PL
ocenił na: 0
Polowanie na Rozpruwacza / American Ripper (2017)
PL.1080p.HDTV.H.264.AAC / Lektor PL


~# DANE TECHNiCZNE / RELEASE .iNFO #~

Ogólne
Complete name : American.Ripper.E03.Whitechapel.Runs.Red.PL.1080p.HDTV.H.264.AAC.mp4
Format : MPEG-4
Format profile : Base Media
Codec ID : isom (isom/iso2/avc1/mp41)
File size : 766 MiB
Duration : 40 min 6s
Overall bit rate : 2.669 kb/s
Writing application : Lavf54.63.104

Wideo
ID : 1
Format : AVC
Format/Info : Advanced Video Codec
Format profile : High@L4.1
Format settings : CABAC / 1 Ref Frames
Format settings, CABAC : Tak
Format settings, ReFrames : 1 klatka
Format settings, GOP : M=1, N=30
Codec ID : avc1
Codec ID/Info : Advanced Video Coding
Duration : 40 min 6s
Bit rate : 2.476 kb/s
Width : 1.920 pikseli
Height : 1.080 pikseli
Display aspect ratio : 16:9
Frame rate mode : Stały
Frame rate : 25,000 kl/s
Color space : YUV
Chroma subsampling : 4:2:0
Bit depth : 8 bitów
Scan type : Progresywny
Bits/(Pixel*Frame) : 0.048
Stream size : 710 MiB (93%)
Color range : Limited
Color primaries : BT.709
Transfer characteristics : BT.709
Matrix coefficients : BT.709

Audio
ID : 2
Format : AAC
Format/Info : Advanced Audio Codec
Format profile : LC
Codec ID : mp4a-40-2
Duration : 40 min 6s
Duration_LastFrame : -21 ms
Bit rate mode : Stała
Bit rate : 192 kb/s
Channel(s) : 2 kanały
Channel positions : Front: L R
Sampling rate : 48,0 kHz
Frame rate : 46,875 kl/s (1024 SPF)
Stream size : 54,3 MiB (7%)
Language : Angielski
Default : Tak
Alternate group : 1


~# ZDJĘCiA / SCREENS #~



~# POBiERZ / DOWNLOAD #~

Kod:
Tekst widoczny dla zalogowanych.

Kod:
Tekst widoczny dla zalogowanych.
_____
Jeżeli pobrałeś albo spodobał Ci się mój post lub obejrzałeś moje materiały kliknij dziękuję to nic Cię nie kosztuje i za wszystkie bardzo dziękuje!!! :dziękuję:

Obraz
Sygnatura•••
Podziękowania dla autora posta:
Shirya