Zaloguj
Zwyczajny serial

Regular Show
Kreskówka, 2010
9,42  głosy: 24Oceń:
Ulubiony
Do obejrzenia
Obejrzany
Premiera:
26 listopada 2004Polska6 września 2010
Gatunek:
Produkcja:

Dodaj sezon
Jest w serwisieyenxKopiuj nick
yenx

Płeć:
Dołączył:
Punkty: 106759$
Podziękowania: 2231
Posty: 5459
Inny język
ocenił na: 0
Zwyczajny serial / Regular Show (2014) S06E23 HDTV.x264-W4F | Audio: English

MP4 | AAC VBR | 70 MB

Kod:
Tekst widoczny dla zalogowanych.
_____
Jeżeli pobrałeś albo spodobał Ci się mój post lub obejrzałeś moje materiały kliknij dziękuję to nic Cię nie kosztuje i za wszystkie bardzo dziękuje!!! :dziękuję:

Obraz
Sygnatura•••
Jest w serwisieyenxKopiuj nick
yenx

Płeć:
Dołączył:
Punkty: 106759$
Podziękowania: 2231
Posty: 5459
Inny język
ocenił na: 0
Zwyczajny serial / Regular Show (2014) S06E24 HDTV.x264-W4F | Audio: English

MP4 | AAC VBR | 56 MB

Kod:
Tekst widoczny dla zalogowanych.
_____
Jeżeli pobrałeś albo spodobał Ci się mój post lub obejrzałeś moje materiały kliknij dziękuję to nic Cię nie kosztuje i za wszystkie bardzo dziękuje!!! :dziękuję:

Obraz
Sygnatura•••
Jest w serwisieyenxKopiuj nick
yenx

Płeć:
Dołączył:
Punkty: 106759$
Podziękowania: 2231
Posty: 5459
Inny język
ocenił na: 0
Zwyczajny serial / Regular Show (2014) S06E25 HDTV.x264-W4F | Audio: English

MP4 | AAC VBR | 149 MB

Kod:
Tekst widoczny dla zalogowanych.
_____
Jeżeli pobrałeś albo spodobał Ci się mój post lub obejrzałeś moje materiały kliknij dziękuję to nic Cię nie kosztuje i za wszystkie bardzo dziękuje!!! :dziękuję:

Obraz
Sygnatura•••
Nie ma w serwisiebodek610Kopiuj nick
bodek610

Płeć:
Dołączył:
Punkty: 689$
Podziękowania: 195
Posty: 382
Dubbing PL / PL
ocenił na: 0
Zwyczajny serial / Regular Show (2010) - Sezon 1

Mordechaj i Rigby pracują jako ogrodnicy w parku, który należy do Papcia. Praca jest jednak tak potwornie nudna, że ci dwaj kumple zrobią wszystko, aby tylko jej uniknąć.



Parametry przykładowego odcinka:
Spoiler
General
Unique ID : 155569364632003721618601600206440969334 (0x750991DCEEA22840C6CCB65004BF3476)
Complete name : C:\filmy\Zwyczajny serial\1x03-04 - Bilety z kofeiną, Kuksy śmierci.mkv
Format : Matroska
Format version : Version 2
File size : 248 MiB
Duration : 21mn 8s
Overall bit rate : 1 642 Kbps
Encoded date : UTC 2016-01-09 09:00:53
Writing application : Lavf54.63.104
Writing library : Lavf54.63.104

Video
ID : 1
Format : AVC
Format/Info : Advanced Video Codec
Format profile : Main@L3.1
Format settings, CABAC : Yes
Format settings, ReFrames : 1 frame
Codec ID : V_MPEG4/ISO/AVC
Duration : 21mn 8s
Nominal bit rate : 1 480 Kbps
Width : 1 280 pixels
Height : 720 pixels
Display aspect ratio : 16:9
Frame rate mode : Constant
Frame rate : 25.000 fps
Color space : YUV
Chroma subsampling : 4:2:0
Bit depth : 8 bits
Scan type : Progressive
Bits/(Pixel*Frame) : 0.064
Writing library : x264 core 129
Encoding settings : cabac=1 / ref=1 / deblock=1:0:0 / analyse=0x1:0x131 / me=dia / subme=2 / psy=1 / psy_rd=1.00:0.00 / mixed_ref=0 / me_range=16 / chroma_me=1 / trellis=0 / 8x8dct=0 / cqm=0 / deadzone=21,11 / fast_pskip=1 / chroma_qp_offset=0 / threads=2 / lookahead_threads=1 / sliced_threads=0 / nr=0 / decimate=1 / interlaced=0 / bluray_compat=0 / constrained_intra=0 / bframes=0 / weightp=2 / keyint=250 / keyint_min=25 / scenecut=40 / intra_refresh=0 / rc_lookahead=40 / rc=abr / mbtree=1 / bitrate=1480 / ratetol=1.0 / qcomp=0.60 / qpmin=10 / qpmax=51 / qpstep=4 / ip_ratio=1.41 / aq=1:1.00
Default : Yes
Forced : No

Audio
ID : 2
Format : AAC
Format/Info : Advanced Audio Codec
Format profile : LC
Codec ID : A_AAC
Duration : 21mn 8s
Channel(s) : 2 channels
Channel positions : Front: L R
Sampling rate : 48.0 KHz
Compression mode : Lossy
Default : Yes
Forced : No


1x01-02 - Potęga, Ustawcie te krzesła
Kod:
Tekst widoczny dla zalogowanych.


1x03-04 - Bilety z kofeiną, Kuksy śmierci
Kod:
Tekst widoczny dla zalogowanych.


1x05-06 - Tort za darmochę, Grill ostateczny
Kod:
Tekst widoczny dla zalogowanych.


1x07 - Ser z Grilla Deluxe
Kod:
Tekst widoczny dla zalogowanych.


1x09-10 - Telewkręty, Don
Kod:
Tekst widoczny dla zalogowanych.


1x11-12 - Ciało Rigby'ego, Mordechaj and the Rigbys
Kod:
Tekst widoczny dla zalogowanych.
_____
Obraz
Sygnatura•••
Podziękowania dla autora posta:
Yoman3200, Maciek74, krzy6io, Bastardowsky, yenx
Nie ma w serwisiebodek610Kopiuj nick
bodek610

Płeć:
Dołączył:
Punkty: 689$
Podziękowania: 195
Posty: 382
Dubbing PL / PL
ocenił na: 0
Zwyczajny serial / Regular Show (2010-2011) - Sezon 2

Mordechaj i Rigby pracują jako ogrodnicy w parku, który należy do Papcia. Praca jest jednak tak potwornie nudna, że ci dwaj kumple zrobią wszystko, aby tylko jej uniknąć.


Parametry przykładowego odcinka:
Spoiler
General
Unique ID : 326684383865100572074233591542519460693 (0xF5C51FAC7032526670F8117D8ED07355)
Complete name : D:\bodzox\Bodzisław\Zwyczajny serial\2x03-04 - Dzień oceny, Peeps.mkv
Format : Matroska
Format version : Version 2
File size : 247 MiB
Duration : 21mn 12s
Overall bit rate : 1 628 Kbps
Encoded date : UTC 2016-01-14 06:52:01
Writing application : Lavf54.63.104
Writing library : Lavf54.63.104

Video
ID : 1
Format : AVC
Format/Info : Advanced Video Codec
Format profile : Main@L3.1
Format settings, CABAC : Yes
Format settings, ReFrames : 1 frame
Codec ID : V_MPEG4/ISO/AVC
Duration : 21mn 12s
Nominal bit rate : 1 474 Kbps
Width : 1 280 pixels
Height : 720 pixels
Display aspect ratio : 16:9
Frame rate mode : Constant
Frame rate : 25.000 fps
Color space : YUV
Chroma subsampling : 4:2:0
Bit depth : 8 bits
Scan type : Progressive
Bits/(Pixel*Frame) : 0.064
Writing library : x264 core 129
Encoding settings : cabac=1 / ref=1 / deblock=1:0:0 / analyse=0x1:0x131 / me=dia / subme=2 / psy=1 / psy_rd=1.00:0.00 / mixed_ref=0 / me_range=16 / chroma_me=1 / trellis=0 / 8x8dct=0 / cqm=0 / deadzone=21,11 / fast_pskip=1 / chroma_qp_offset=0 / threads=2 / lookahead_threads=1 / sliced_threads=0 / nr=0 / decimate=1 / interlaced=0 / bluray_compat=0 / constrained_intra=0 / bframes=0 / weightp=2 / keyint=250 / keyint_min=25 / scenecut=40 / intra_refresh=0 / rc_lookahead=40 / rc=abr / mbtree=1 / bitrate=1474 / ratetol=1.0 / qcomp=0.60 / qpmin=10 / qpmax=51 / qpstep=4 / ip_ratio=1.41 / aq=1:1.00
Default : Yes
Forced : No

Audio
ID : 2
Format : AAC
Format/Info : Advanced Audio Codec
Format profile : LC
Codec ID : A_AAC
Duration : 21mn 12s
Channel(s) : 2 channels
Channel positions : Front: L R
Sampling rate : 48.0 KHz
Compression mode : Lossy
Default : Yes
Forced : No



2x01-02 - Witam szefuniu, Już czas
Kod:
Tekst widoczny dla zalogowanych.


2x03-04 - Dzień oceny, Peeps
Kod:
Tekst widoczny dla zalogowanych.


2x05-06 - Zakręcony, Moja Mama
Kod:
Tekst widoczny dla zalogowanych.


2x07-08 - Najlepszy wynik, Walka z telewizorem
Kod:
Tekst widoczny dla zalogowanych.


2x09-10 - Impra Pete, Odejdź Benson
Kod:
Tekst widoczny dla zalogowanych.


2x11-12 - Odmóżdżacz, Ale ja mam paragon
Kod:
Tekst widoczny dla zalogowanych.


2x13-14 - To moja piosenka, Atletowa
Kod:
Tekst widoczny dla zalogowanych.


2x15-16 - Zastępca, Dynks
Kod:
Tekst widoczny dla zalogowanych.


2x17-18 - To na razie, Zrób coś dla mnie
Kod:
Tekst widoczny dla zalogowanych.


2x19-20 - Grobowe atrakcje, Prawdziwie prawdziwe zapasy
Kod:
Tekst widoczny dla zalogowanych.


2x21-22 - Przegięcie, Nocna Sowa
Kod:
Tekst widoczny dla zalogowanych.


2x23-24 - Stadko kaczuszek, Bardziej mądrzejszy
Kod:
Tekst widoczny dla zalogowanych.


2x25-26 - Pierwszy dzień, Sława w sieci
Kod:
Tekst widoczny dla zalogowanych.


2x27-28 - Zaskunksiony, Film z Karaoke
Kod:
Tekst widoczny dla zalogowanych.
_____
Obraz
Sygnatura•••
Podziękowania dla autora posta:
Yoman3200, krzy6io, Maciek74, flaming750, yenx
Nie ma w serwisiebodek610Kopiuj nick
bodek610

Płeć:
Dołączył:
Punkty: 689$
Podziękowania: 195
Posty: 382
Dubbing PL / PL
ocenił na: 0
Zwyczajny serial / Regular Show (2011-2012) - Sezon 3

Mordechaj i Rigby pracują jako ogrodnicy w parku, który należy do Papcia. Praca jest jednak tak potwornie nudna, że ci dwaj kumple zrobią wszystko, aby tylko jej uniknąć.


Parametry przykładowego odcinka:
Spoiler

General
Unique ID : 240485165589634682821568209050944624422 (0xB4EBC216B54E4F4C6C480FF9BBAB5726)
Complete name : C:\filmy\Zwyczajny serial\3x01-02 - Mini-hokej, Blondyn z zakładu.mkv
Format : Matroska
Format version : Version 2
File size : 254 MiB
Duration : 21mn 12s
Overall bit rate : 1 677 Kbps
Encoded date : UTC 2016-02-06 19:01:46
Writing application : Lavf54.63.104
Writing library : Lavf54.63.104

Video
ID : 1
Format : AVC
Format/Info : Advanced Video Codec
Format profile : Main@L3.1
Format settings, CABAC : Yes
Format settings, ReFrames : 1 frame
Codec ID : V_MPEG4/ISO/AVC
Duration : 21mn 12s
Nominal bit rate : 1 474 Kbps
Width : 1 280 pixels
Height : 720 pixels
Display aspect ratio : 16:9
Frame rate mode : Constant
Frame rate : 25.000 fps
Color space : YUV
Chroma subsampling : 4:2:0
Bit depth : 8 bits
Scan type : Progressive
Bits/(Pixel*Frame) : 0.064
Writing library : x264 core 129
Encoding settings : cabac=1 / ref=1 / deblock=1:0:0 / analyse=0x1:0x131 / me=dia / subme=2 / psy=1 / psy_rd=1.00:0.00 / mixed_ref=0 / me_range=16 / chroma_me=1 / trellis=0 / 8x8dct=0 / cqm=0 / deadzone=21,11 / fast_pskip=1 / chroma_qp_offset=0 / threads=2 / lookahead_threads=1 / sliced_threads=0 / nr=0 / decimate=1 / interlaced=0 / bluray_compat=0 / constrained_intra=0 / bframes=0 / weightp=2 / keyint=250 / keyint_min=25 / scenecut=40 / intra_refresh=0 / rc_lookahead=40 / rc=abr / mbtree=1 / bitrate=1474 / ratetol=1.0 / qcomp=0.60 / qpmin=10 / qpmax=51 / qpstep=4 / ip_ratio=1.41 / aq=1:1.00
Default : Yes
Forced : No

Audio
ID : 2
Format : AAC
Format/Info : Advanced Audio Codec
Format profile : LC
Codec ID : A_AAC
Duration : 21mn 12s
Channel(s) : 2 channels
Channel positions : Front: L R
Sampling rate : 48.0 KHz
Compression mode : Lossy
Default : Yes
Forced : No


3x01-02 - Mini-hokej, Blondyn z zakładu
Kod:
Tekst widoczny dla zalogowanych.

3x03-04 - Straszne opowieści z parku I
Kod:
Tekst widoczny dla zalogowanych.

3x05-06 - Strajk Hopa, Uroki biwakowania
Kod:
Tekst widoczny dla zalogowanych.

3x07-08 - Wsad, Czadowe rowery
Kod:
Tekst widoczny dla zalogowanych.

3x09-10 - Domowy regulamin, Dawaj rapu
Kod:
Tekst widoczny dla zalogowanych.

3x11-12 - Podryw, Pod kapturem
Kod:
Tekst widoczny dla zalogowanych.

3x13-14 - Weekend u Bensona, Ciastko z wróżbą
Kod:
Tekst widoczny dla zalogowanych.

3x15-16 - Myśl pozytywnie, Hop kontra technologia
Kod:
Tekst widoczny dla zalogowanych.

3x17-18 - Połączenie pośladkowe, Jajcarz
Kod:
Tekst widoczny dla zalogowanych.

3x19-20 - Brzuchowy model, Wielki zwyciężca
Kod:
Tekst widoczny dla zalogowanych.

3x21-22 - Czarodzieje gier wideo, Najlepszy hamburger na świecie
Kod:
Tekst widoczny dla zalogowanych.

3x23-24 - Zwolnieni, Śmieć Łódka
Kod:
Tekst widoczny dla zalogowanych.

3x25-26 - Pięści sprawiedliwości, Tak koleś, tak!
Kod:
Tekst widoczny dla zalogowanych.

3x27-28 - Na zbity wózek, Śmierć o ósmej
Kod:
Tekst widoczny dla zalogowanych.

3x29-30 - Zakaz wstępu, Atleta szkoleniowiec
Kod:
Tekst widoczny dla zalogowanych.

3x31-32 - Tirowy dwór sławy, Do kasacji
Kod:
Tekst widoczny dla zalogowanych.

3x33-34 - Elegancka restauracja, Pamiętnik
Kod:
Tekst widoczny dla zalogowanych.

3x35-36 - Najlepszy VHS w historii, Bez jaj
Kod:
Tekst widoczny dla zalogowanych.

3x37-38 - Śmierćdźwiedź, Pluszowe kostki
Kod:
Tekst widoczny dla zalogowanych.

3x39-40 - Cukrowy kop, Nieświeży pocałunek
Kod:
Tekst widoczny dla zalogowanych.
_____
Obraz
Sygnatura•••
Podziękowania dla autora posta:
Yoman3200, Maciek74, yenx
Nie ma w serwisiebodek610Kopiuj nick
bodek610

Płeć:
Dołączył:
Punkty: 689$
Podziękowania: 195
Posty: 382
Dubbing PL / PL
ocenił na: 0
Zwyczajny serial / Regular Show (2012-2013) - Sezon 4

Mordechaj i Rigby pracują jako ogrodnicy w parku, który należy do Papcia. Praca jest jednak tak potwornie nudna, że ci dwaj kumple zrobią wszystko, aby tylko jej uniknąć.


Parametry przykładowego odcinka:
Spoiler
General
Unique ID : 191820925238315105213026178421934691667 (0x904F5DCB94CE03CD8C9D9C2B75069553)
Complete name : C:\filmy\Zwyczajny serial\4x09-10 - Noc kolesi; Jedno podciągnięcie.mkv
Format : Matroska
Format version : Version 4 / Version 2
File size : 227 MiB
Duration : 21mn 36s
Overall bit rate : 1 470 Kbps
Encoded date : UTC 2016-03-23 18:33:20
Writing application : mkvmerge v8.6.1 ('Flying') 32bit
Writing library : libebml v1.3.3 + libmatroska v1.4.4
DURATION : 00:21:36.192000000
NUMBER_OF_FRAMES : 40506
NUMBER_OF_BYTES : 31108608
_STATISTICS_WRITING_APP : mkvmerge v8.6.1 ('Flying') 32bit
_STATISTICS_WRITING_DATE_UTC : 2016-03-23 18:33:20
_STATISTICS_TAGS : BPS DURATION NUMBER_OF_FRAMES NUMBER_OF_BYTES

Video
ID : 1
Format : AVC
Format/Info : Advanced Video Codec
Format profile : Main@L5.1
Format settings, CABAC : Yes
Format settings, ReFrames : 1 frame
Codec ID : V_MPEG4/ISO/AVC
Duration : 21mn 36s
Bit rate : 1 249 Kbps
Width : 1 280 pixels
Height : 720 pixels
Display aspect ratio : 16:9
Frame rate mode : Constant
Frame rate : 25.000 fps
Original frame rate : 23.976 fps
Color space : YUV
Chroma subsampling : 4:2:0
Bit depth : 8 bits
Scan type : Progressive
Bits/(Pixel*Frame) : 0.054
Stream size : 193 MiB (85%)
Default : Yes
Forced : No

Audio
ID : 2
Format : AC-3
Format/Info : Audio Coding 3
Mode extension : CM (complete main)
Format settings, Endianness : Big
Codec ID : A_AC3
Duration : 21mn 36s
Bit rate mode : Constant
Bit rate : 192 Kbps
Channel(s) : 2 channels
Channel positions : Front: L R
Sampling rate : 48.0 KHz
Bit depth : 16 bits
Compression mode : Lossy
Stream size : 29.7 MiB (13%)
Title : Polski
Language : Polish
Default : Yes
Forced : No


4x01-02 - Zjazd 9B
Kod:
Tekst widoczny dla zalogowanych.

4x03-04 - Żółtodziób; Konkurs placków
Kod:
Tekst widoczny dla zalogowanych.

4x05-06 - Przerażające historie z parku II
Kod:
Tekst widoczny dla zalogowanych.

4x07-08 - 150-elementowy zestaw; Łysina
Kod:
Tekst widoczny dla zalogowanych.

4x09-10 - Noc kolesi; Jedno podciągnięcie
Kod:
Tekst widoczny dla zalogowanych.

4x11-12 - Odcinek gwiazdkowy
Kod:
Tekst widoczny dla zalogowanych.

4x13-14 - Wtorkowa impreza; Fajerwerkowa jazda
Kod:
Tekst widoczny dla zalogowanych.

4x15-16 - Najdłuższy weekend; Kanapka śmierci
Kod:
Tekst widoczny dla zalogowanych.

4x17-18 - Ace Balthazar żyje; Całus albo pielucha
Kod:
Tekst widoczny dla zalogowanych.

4x19-20 - Kłop; Jaskiniowiec
Kod:
Tekst widoczny dla zalogowanych.

4x21-22 - To mój telewizor; Stado wyrośniętych gęsi
Kod:
Tekst widoczny dla zalogowanych.

4x23-24 - Wyroluj dwa razy; Lunch w limuzynie
Kod:
Tekst widoczny dla zalogowanych.

4x25-26 - Jazda po Małgosię; Radio Czadzior
Kod:
Tekst widoczny dla zalogowanych.

4x27-28 - Carter i Briggs; Stres Hopa
Kod:
Tekst widoczny dla zalogowanych.

4x29-30 - Mróz do sześcianu; Na przyczepkę
Kod:
Tekst widoczny dla zalogowanych.

4x31-32 - Meteorowe kroki; Rodzinny grill
Kod:
Tekst widoczny dla zalogowanych.

4x33-34 - Ostatni odtwarzacz płyt LD; Elitarny klub
Kod:
Tekst widoczny dla zalogowanych.

4x35-36 - Ślepe zaufanie; Najlepszy szef na świecie
Kod:
Tekst widoczny dla zalogowanych.

4x37-38 - Ostatni posiłek; Bokser lunatyk
Kod:
Tekst widoczny dla zalogowanych.

4x39-40 - Impra na bis; Klastek Amadeusz
Kod:
Tekst widoczny dla zalogowanych.
_____
Obraz
Sygnatura•••
Podziękowania dla autora posta:
Yoman3200, krzy6io, jaro171, yenx
Nie ma w serwisiebodek610Kopiuj nick
bodek610

Płeć:
Dołączył:
Punkty: 689$
Podziękowania: 195
Posty: 382
Dubbing PL / PL
ocenił na: 0
Zwyczajny serial / Regular Show (2013-2014) - Sezon 5, część 1

Mordechaj i Rigby pracują jako ogrodnicy w parku, który należy do Papcia. Praca jest jednak tak potwornie nudna, że ci dwaj kumple zrobią wszystko, aby tylko jej uniknąć.


Parametry przykładowego odcinka:
Spoiler
General
Unique ID : 203462026254716120504891888704942917707 (0x99115C6359B0479DAE5FC312212E484B)
Complete name : C:\filmy\Zwyczajny serial\5x05-06 - Ścianokumpel; Hopsanie w czasie.mkv
Format : Matroska
Format version : Version 4 / Version 2
File size : 287 MiB
Duration : 21mn 35s
Overall bit rate : 1 861 Kbps
Encoded date : UTC 2016-05-11 08:08:42
Writing application : mkvmerge v8.6.1 ('Flying') 32bit
Writing library : libebml v1.3.3 + libmatroska v1.4.4
DURATION : 00:21:35.744000000
NUMBER_OF_FRAMES : 40492
NUMBER_OF_BYTES : 31097856
_STATISTICS_WRITING_APP : mkvmerge v8.6.1 ('Flying') 32bit
_STATISTICS_WRITING_DATE_UTC : 2016-05-11 08:08:42
_STATISTICS_TAGS : BPS DURATION NUMBER_OF_FRAMES NUMBER_OF_BYTES

Video
ID : 1
Format : AVC
Format/Info : Advanced Video Codec
Format profile : High@L4.1
Format settings, CABAC : Yes
Format settings, ReFrames : 4 frames
Codec ID : V_MPEG4/ISO/AVC
Duration : 21mn 35s
Bit rate : 1 631 Kbps
Width : 1 920 pixels
Height : 1 080 pixels
Display aspect ratio : 16:9
Frame rate mode : Constant
Frame rate : 25.000 fps
Color space : YUV
Chroma subsampling : 4:2:0
Bit depth : 8 bits
Scan type : Progressive
Bits/(Pixel*Frame) : 0.031
Stream size : 252 MiB (88%)
Writing library : x264 core 142 r2491 24e4fed
Encoding settings : cabac=1 / ref=4 / deblock=1:1:1 / analyse=0x3:0x133 / me=umh / subme=10 / psy=1 / psy_rd=0.40:0.00 / mixed_ref=1 / me_range=32 / chroma_me=1 / trellis=2 / 8x8dct=1 / cqm=0 / deadzone=21,11 / fast_pskip=1 / chroma_qp_offset=-2 / threads=12 / lookahead_threads=3 / sliced_threads=0 / nr=0 / decimate=1 / interlaced=0 / bluray_compat=0 / constrained_intra=0 / bframes=10 / b_pyramid=2 / b_adapt=2 / b_bias=0 / direct=3 / weightb=1 / open_gop=0 / weightp=2 / keyint=250 / keyint_min=23 / scenecut=40 / intra_refresh=0 / rc_lookahead=60 / rc=crf / mbtree=1 / crf=23.5 / qcomp=0.60 / qpmin=0 / qpmax=69 / qpstep=4 / ip_ratio=1.40 / aq=1:0.60
Language : English
Default : Yes
Forced : No

Audio
ID : 2
Format : AC-3
Format/Info : Audio Coding 3
Mode extension : CM (complete main)
Format settings, Endianness : Big
Codec ID : A_AC3
Duration : 21mn 35s
Bit rate mode : Constant
Bit rate : 192 Kbps
Channel(s) : 2 channels
Channel positions : Front: L R
Sampling rate : 48.0 KHz
Bit depth : 16 bits
Compression mode : Lossy
Stream size : 29.7 MiB (10%)
Title : Polski
Language : Polish
Default : Yes
Forced : No


5x01-02 - Pralniowe żale; Srebrny koleś
Kod:
Tekst widoczny dla zalogowanych.


5x03-04 - Auto Bensona; Wszystko mięsne Burritos
Kod:
Tekst widoczny dla zalogowanych.


5x05-06 - Ścianokumpel; Hopsanie w czasie
Kod:
Tekst widoczny dla zalogowanych.


5x07-08 - Przerażające historie z parku III
Kod:
Tekst widoczny dla zalogowanych.


5x09-10 - Szkoła przetrwania; Stodnie
Kod:
Tekst widoczny dla zalogowanych.


5x11-12 - O tablicę; Wieża mocy
Kod:
Tekst widoczny dla zalogowanych.


5x13-14 - Święto dziękczynienia
Kod:
Tekst widoczny dla zalogowanych.


5x15-16 - Serce kaskadera; Noworoczny pocałunek
Kod:
Tekst widoczny dla zalogowanych.


5x17-18 - Unik; Toi-Toi
Kod:
Tekst widoczny dla zalogowanych.


5x19-20 - Pocztówka; Rigby w powietrzu z Burrito
Kod:
Tekst widoczny dla zalogowanych.
_____
Obraz
Sygnatura•••
Podziękowania dla autora posta:
Yoman3200, jaro171, yenx
Nie ma w serwisiebodek610Kopiuj nick
bodek610

Płeć:
Dołączył:
Punkty: 689$
Podziękowania: 195
Posty: 382
Dubbing PL / PL
ocenił na: 0
Zwyczajny serial / Regular Show (2013-2014) - Sezon 5, część 2

Mordechaj i Rigby pracują jako ogrodnicy w parku, który należy do Papcia. Praca jest jednak tak potwornie nudna, że ci dwaj kumple zrobią wszystko, aby tylko jej uniknąć.


Parametry przykładowego odcinka:
Spoiler
General
Unique ID : 211647896490595902384644162139163497734 (0x9F39E6F36B4AEA34B69A7FEE3B589506)
Complete name : Q:\5x27-28 - Kiepski portret; Podstawy filmowania.mkv
Format : Matroska
Format version : Version 4 / Version 2
File size : 249 MiB
Duration : 21mn 39s
Overall bit rate : 1 605 Kbps
Encoded date : UTC 2016-05-28 19:16:14
Writing application : mkvmerge v8.6.1 ('Flying') 32bit
Writing library : libebml v1.3.3 + libmatroska v1.4.4
DURATION : 00:21:39.936000000
NUMBER_OF_FRAMES : 40623
NUMBER_OF_BYTES : 31198464
_STATISTICS_WRITING_APP : mkvmerge v8.6.1 ('Flying') 32bit
_STATISTICS_WRITING_DATE_UT : 2016-05-28 19:16:14
_STATISTICS_TAGS : BPS DURATION NUMBER_OF_FRAMES NUMBER_OF_BYTES

Video
ID : 1
Format : AVC
Format/Info : Advanced Video Codec
Format profile : High@L4.1
Format settings, CABAC : Yes
Format settings, ReFrames : 4 frames
Codec ID : V_MPEG4/ISO/AVC
Duration : 21mn 39s
Bit rate : 1 381 Kbps
Width : 1 920 pixels
Height : 1 080 pixels
Display aspect ratio : 16:9
Frame rate mode : Constant
Frame rate : 25.000 fps
Color space : YUV
Chroma subsampling : 4:2:0
Bit depth : 8 bits
Scan type : Progressive
Bits/(Pixel*Frame) : 0.027
Stream size : 214 MiB (86%)
Writing library : x264 core 142 r2491 24e4fed
Encoding settings : cabac=1 / ref=4 / deblock=1:1:1 / analyse=0x3:0x133 / me=umh / subme=10 / psy=1 / psy_rd=0.40:0.00 / mixed_ref=1 / me_range=32 / chroma_me=1 / trellis=2 / 8x8dct=1 / cqm=0 / deadzone=21,11 / fast_pskip=1 / chroma_qp_offset=-2 / threads=24 / lookahead_threads=6 / sliced_threads=0 / nr=0 / decimate=1 / interlaced=0 / bluray_compat=0 / constrained_intra=0 / bframes=10 / b_pyramid=2 / b_adapt=2 / b_bias=0 / direct=3 / weightb=1 / open_gop=0 / weightp=2 / keyint=250 / keyint_min=23 / scenecut=40 / intra_refresh=0 / rc_lookahead=60 / rc=crf / mbtree=1 / crf=23.5 / qcomp=0.60 / qpmin=0 / qpmax=69 / qpstep=4 / ip_ratio=1.40 / aq=1:0.60
Language : English
Default : Yes
Forced : No

Audio
ID : 2
Format : AC-3
Format/Info : Audio Coding 3
Mode extension : CM (complete main)
Format settings, Endianness : Big
Codec ID : A_AC3
Duration : 21mn 39s
Bit rate mode : Constant
Bit rate : 192 Kbps
Channel(s) : 2 channels
Channel positions : Front: L R
Sampling rate : 48.0 KHz
Bit depth : 16 bits
Compression mode : Lossy
Stream size : 29.8 MiB (12%)
Title : Polski
Language : Polish
Default : Yes
Forced : No


5x21-22 - Podróż na dno Megadołu; Oszczędność czasu
Kod:
Tekst widoczny dla zalogowanych.


5x23-24 - Historia Hopa
Kod:
Tekst widoczny dla zalogowanych.


5x25-26 - Gitara Rocka; Powrót kapeli Mordechaj and the Rigbys
Kod:
Tekst widoczny dla zalogowanych.


5x27-28 - Kiepski portret; Podstawy filmowania
Kod:
Tekst widoczny dla zalogowanych.


5x29-30 - Lubię Cię, hej!; Niańkorandka
Kod:
Tekst widoczny dla zalogowanych.


5x31-32 - Złoty zegarek; Malowanie
Kod:
Tekst widoczny dla zalogowanych.


5x33-34 - Ekspert czy kłamca?; Łapanie fali
Kod:
Tekst widoczny dla zalogowanych.


5x35-36 - Akcja Tort; Hop wraca do gry
Kod:
Tekst widoczny dla zalogowanych.


5x37-38 - Thomas się broni; Wieczór kawalerski, Zingo!
Kod:
Tekst widoczny dla zalogowanych.


5x39-40 - Kłopoty z namiotem; Prawdziwa randka
Kod:
Tekst widoczny dla zalogowanych.
_____
Obraz
Sygnatura•••
Podziękowania dla autora posta:
Yoman3200, yenx
Nie ma w serwisiebodek610Kopiuj nick
bodek610

Płeć:
Dołączył:
Punkty: 689$
Podziękowania: 195
Posty: 382
Dubbing PL / PL
ocenił na: 0
Zwyczajny serial: Zabawobieg WEB-DL 720p

Rozmiar: 42MB
Czas trwania: 04:19

Kod:
Tekst widoczny dla zalogowanych.
_____
Obraz
Sygnatura•••
Podziękowania dla autora posta:
yenx