Zaloguj
Wyluzuj, Scooby-Doo

Be Cool, Scooby-Doo!
Kreskówka, 2015
7,83  głosy: 6Oceń:
Ulubiony
Do obejrzenia
Obejrzany
Premiera:
28 listopada 2015Polska5 października 2015
Produkcja:

Dodaj sezon
Jest w serwisieyenxKopiuj nick
yenx

Płeć:
Dołączył:
Punkty: 106761$
Podziękowania: 2231
Posty: 5459
Dubbing PL / PL
ocenił na: 0
Wyluzuj, Scooby-Doo / Be Cool, Scooby-Doo! (2017) S02E12 1080i HDMania | Audio: Dubbing PL + Angielski
Ogólne
Unique ID : 227168000629438604449092765812009689734 (0xAAE6F729D21199EABA4F7FED0E076286)
Complete name : Be Cool, Scooby-Doo! - S02E12 Doo Not Disturb [Compressed] 1080i HDMania.mkv
Format : Matroska
Format version : Version 4 / Version 2
File size : 659 MiB
Duration : 21 min 26s
Overall bit rate : 4.298 kb/s
Encoded date : UTC 2017-08-17 17:57:42
Writing application : mkvmerge v14.0.0 ('Flow') 64bit
Writing library : libebml v1.3.4 + libmatroska v1.4.5

Wideo
ID : 1
Format : AVC
Format/Info : Advanced Video Codec
Format profile : High@L4.1
Format settings, CABAC : Tak
Format settings, ReFrames : 3 klatki
Codec ID : V_MPEG4/ISO/AVC
Duration : 21 min 26s
Bit rate mode : Stała
Bit rate : 4.000 kb/s
Width : 1.920 pikseli
Height : 1.080 pikseli
Display aspect ratio : 16:9
Frame rate mode : Zmienny
Frame rate : 50,000 kl/s
Original frame rate : 25,000 kl/s
Standard : PAL
Color space : YUV
Chroma subsampling : 4:2:0
Bit depth : 8 bitów
Scan type : Z przeplotem
Scan order : Górne pole wpierw
Bits/(Pixel*Frame) : 0.039
Stream size : 595 MiB (90%)
Default : Tak
Forced : Nie
Color range : Limited
Color primaries : BT.709
Transfer characteristics : BT.709
Matrix coefficients : BT.709

Audio #1
ID : 2
Format : AAC
Format/Info : Advanced Audio Codec
Format profile : LC
Codec ID : A_AAC
Duration : 21 min 26s
Bit rate : 192 kb/s
Channel(s) : 2 kanały
Channel positions : Front: L R
Sampling rate : 48,0 kHz
Frame rate : 46,875 kl/s (1024 SPF)
Stream size : 29,4 MiB (4%)
Language : Polski
Default : Tak
Forced : Nie

Audio #2
ID : 3
Format : AAC
Format/Info : Advanced Audio Codec
Format profile : LC
Codec ID : A_AAC
Duration : 21 min 26s
Bit rate : 221 kb/s
Channel(s) : 2 kanały
Channel positions : Front: L R
Sampling rate : 48,0 kHz
Frame rate : 46,875 kl/s (1024 SPF)
Stream size : 33,9 MiB (5%)
Language : Angielski
Default : Nie
Forced : Nie

Kod:
Tekst widoczny dla zalogowanych.
_____
Jeżeli pobrałeś albo spodobał Ci się mój post lub obejrzałeś moje materiały kliknij dziękuję to nic Cię nie kosztuje i za wszystkie bardzo dziękuje!!! :dziękuję:

Obraz
Sygnatura•••
Podziękowania dla autora posta:
Solek69
Jest w serwisieyenxKopiuj nick
yenx

Płeć:
Dołączył:
Punkty: 106761$
Podziękowania: 2231
Posty: 5459
Dubbing PL / PL
ocenił na: 0
Wyluzuj, Scooby-Doo / Be Cool, Scooby-Doo! (2017) S02E13 1080i HDMania | Audio: Dubbing PL + Angielski
Ogólne
Unique ID : 174186977220854940995310498221782412441 (0x830B3108735311798E6F5D7E97E72C99)
Complete name : Be Cool, Scooby-Doo! - S02E13 Silver Scream [Compressed] 1080i HDMania.mkv
Format : Matroska
Format version : Version 4 / Version 2
File size : 644 MiB
Duration : 21 min 3s
Overall bit rate : 4.279 kb/s
Encoded date : UTC 2017-08-21 19:45:13
Writing application : mkvmerge v14.0.0 ('Flow') 64bit
Writing library : libebml v1.3.4 + libmatroska v1.4.5

Wideo
ID : 1
Format : AVC
Format/Info : Advanced Video Codec
Format profile : High@L4.1
Format settings, CABAC : Tak
Format settings, ReFrames : 3 klatki
Codec ID : V_MPEG4/ISO/AVC
Duration : 21 min 3s
Bit rate mode : Stała
Bit rate : 4.000 kb/s
Width : 1.920 pikseli
Height : 1.080 pikseli
Display aspect ratio : 16:9
Frame rate mode : Zmienny
Frame rate : 50,000 kl/s
Original frame rate : 25,000 kl/s
Standard : PAL
Color space : YUV
Chroma subsampling : 4:2:0
Bit depth : 8 bitów
Scan type : Z przeplotem
Scan order : Górne pole wpierw
Bits/(Pixel*Frame) : 0.039
Stream size : 581 MiB (90%)
Default : Tak
Forced : Nie
Color range : Limited
Color primaries : BT.709
Transfer characteristics : BT.709
Matrix coefficients : BT.709

Audio #1
ID : 2
Format : AAC
Format/Info : Advanced Audio Codec
Format profile : LC
Codec ID : A_AAC
Duration : 21 min 3s
Bit rate : 192 kb/s
Channel(s) : 2 kanały
Channel positions : Front: L R
Sampling rate : 48,0 kHz
Frame rate : 46,875 kl/s (1024 SPF)
Stream size : 28,9 MiB (4%)
Language : Polski
Default : Tak
Forced : Nie

Audio #2
ID : 3
Format : AAC
Format/Info : Advanced Audio Codec
Format profile : LC
Codec ID : A_AAC
Duration : 21 min 3s
Bit rate : 221 kb/s
Channel(s) : 2 kanały
Channel positions : Front: L R
Sampling rate : 48,0 kHz
Frame rate : 46,875 kl/s (1024 SPF)
Stream size : 33,3 MiB (5%)
Language : Angielski
Default : Nie
Forced : Nie

Kod:
Tekst widoczny dla zalogowanych.
_____
Jeżeli pobrałeś albo spodobał Ci się mój post lub obejrzałeś moje materiały kliknij dziękuję to nic Cię nie kosztuje i za wszystkie bardzo dziękuje!!! :dziękuję:

Obraz
Sygnatura•••
Podziękowania dla autora posta:
Solek69
Jest w serwisieyenxKopiuj nick
yenx

Płeć:
Dołączył:
Punkty: 106761$
Podziękowania: 2231
Posty: 5459
Dubbing PL / PL
ocenił na: 0
Wyluzuj, Scooby-Doo / Be Cool, Scooby-Doo! (2017) S02E14 1080i HDMania | Audio: Dubbing PL + Angielski
Ogólne
Unique ID : 197683154768259866890108436796919637051 (0x94B86406ADD02B99901AB7AAA6E1E43B)
Complete name : Be Cool, Scooby-Doo! - S02E14 Fright Of Hand [Compressed] 1080i HDMania.mkv
Format : Matroska
Format version : Version 4 / Version 2
File size : 603 MiB
Duration : 20 min 18s
Overall bit rate : 4.151 kb/s
Encoded date : UTC 2017-08-21 18:52:04
Writing application : mkvmerge v14.0.0 ('Flow') 64bit
Writing library : libebml v1.3.4 + libmatroska v1.4.5

Wideo
ID : 1
Format : AVC
Format/Info : Advanced Video Codec
Format profile : High@L4.1
Format settings, CABAC : Tak
Format settings, ReFrames : 3 klatki
Codec ID : V_MPEG4/ISO/AVC
Duration : 20 min 18s
Bit rate mode : Stała
Bit rate : 3.797 kb/s
Nominal bit rate : 4.000 kb/s
Width : 1.920 pikseli
Height : 1.080 pikseli
Display aspect ratio : 16:9
Frame rate mode : Zmienny
Frame rate : 50,000 kl/s
Original frame rate : 25,000 kl/s
Standard : PAL
Color space : YUV
Chroma subsampling : 4:2:0
Bit depth : 8 bitów
Scan type : Z przeplotem
Scan order : Górne pole wpierw
Bits/(Pixel*Frame) : 0.037
Stream size : 552 MiB (91%)
Default : Tak
Forced : Nie
Color range : Limited
Color primaries : BT.709
Transfer characteristics : BT.709
Matrix coefficients : BT.709

Audio #1
ID : 2
Format : AAC
Format/Info : Advanced Audio Codec
Format profile : LC
Codec ID : A_AAC
Duration : 20 min 18s
Bit rate : 128 kb/s
Channel(s) : 2 kanały
Channel positions : Front: L R
Sampling rate : 48,0 kHz
Frame rate : 46,875 kl/s (1024 SPF)
Stream size : 18,6 MiB (3%)
Language : Polski
Default : Tak
Forced : Nie

Audio #2
ID : 3
Format : AAC
Format/Info : Advanced Audio Codec
Format profile : LC
Codec ID : A_AAC
Duration : 20 min 18s
Bit rate : 221 kb/s
Channel(s) : 2 kanały
Channel positions : Front: L R
Sampling rate : 48,0 kHz
Frame rate : 46,875 kl/s (1024 SPF)
Stream size : 32,2 MiB (5%)
Language : Angielski
Default : Nie
Forced : Nie

Kod:
Tekst widoczny dla zalogowanych.
_____
Jeżeli pobrałeś albo spodobał Ci się mój post lub obejrzałeś moje materiały kliknij dziękuję to nic Cię nie kosztuje i za wszystkie bardzo dziękuje!!! :dziękuję:

Obraz
Sygnatura•••
Podziękowania dla autora posta:
Solek69
Jest w serwisieyenxKopiuj nick
yenx

Płeć:
Dołączył:
Punkty: 106761$
Podziękowania: 2231
Posty: 5459
Dubbing PL / PL
ocenił na: 0
Wyluzuj, Scooby-Doo / Be Cool, Scooby-Doo! (2017) S02E15 1080i HDMania | Audio: Dubbing PL + Angielski
Ogólne
Unique ID : 199209645467539912951370846959482462229 (0x95DE61D40957236C816A18DEA7786015)
Complete name : Be Cool, Scooby-Doo! - S02E15 Greece Is The Word [Compressed] 1080i HDMania.mkv
Format : Matroska
Format version : Version 4 / Version 2
File size : 643 MiB
Duration : 20 min 40s
Overall bit rate : 4.350 kb/s
Encoded date : UTC 2017-08-22 16:48:19
Writing application : mkvmerge v14.0.0 ('Flow') 64bit
Writing library : libebml v1.3.4 + libmatroska v1.4.5

Wideo
ID : 1
Format : AVC
Format/Info : Advanced Video Codec
Format profile : High@L4.1
Format settings, CABAC : Tak
Format settings, ReFrames : 3 klatki
Codec ID : V_MPEG4/ISO/AVC
Duration : 20 min 40s
Bit rate mode : Stała
Bit rate : 4.000 kb/s
Width : 1.920 pikseli
Height : 1.080 pikseli
Display aspect ratio : 16:9
Frame rate mode : Zmienny
Frame rate : 50,000 kl/s
Original frame rate : 25,000 kl/s
Standard : PAL
Color space : YUV
Chroma subsampling : 4:2:0
Bit depth : 8 bitów
Scan type : Z przeplotem
Scan order : Górne pole wpierw
Bits/(Pixel*Frame) : 0.039
Stream size : 582 MiB (90%)
Default : Tak
Forced : Nie
Color range : Limited
Color primaries : BT.709
Transfer characteristics : BT.709
Matrix coefficients : BT.709

Audio #1
ID : 2
Format : AAC
Format/Info : Advanced Audio Codec
Format profile : LC
Codec ID : A_AAC
Duration : 20 min 40s
Bit rate : 192 kb/s
Channel(s) : 2 kanały
Channel positions : Front: L R
Sampling rate : 48,0 kHz
Frame rate : 46,875 kl/s (1024 SPF)
Stream size : 28,4 MiB (4%)
Language : Polski
Default : Tak
Forced : Nie

Audio #2
ID : 3
Format : AAC
Format/Info : Advanced Audio Codec
Format profile : LC
Codec ID : A_AAC
Duration : 20 min 40s
Bit rate : 221 kb/s
Channel(s) : 2 kanały
Channel positions : Front: L R
Sampling rate : 48,0 kHz
Frame rate : 46,875 kl/s (1024 SPF)
Stream size : 32,7 MiB (5%)
Language : Polski
Default : Nie
Forced : Nie

Kod:
Tekst widoczny dla zalogowanych.
_____
Jeżeli pobrałeś albo spodobał Ci się mój post lub obejrzałeś moje materiały kliknij dziękuję to nic Cię nie kosztuje i za wszystkie bardzo dziękuje!!! :dziękuję:

Obraz
Sygnatura•••
Podziękowania dla autora posta:
Solek69
Jest w serwisieyenxKopiuj nick
yenx

Płeć:
Dołączył:
Punkty: 106761$
Podziękowania: 2231
Posty: 5459
Dubbing PL / PL
ocenił na: 0
Wyluzuj, Scooby-Doo / Be Cool, Scooby-Doo! (2017) S02E08E09E11-E15 480i HDMania | Audio: Dubbing PL
Ogólne
Complete name : Be Cool, Scooby-Doo! - S02E08 The Curse Of Kaniaku [Compressed] 480i HDMania.avi
Format : AVI
Format/Info : Audio Video Interleave
File size : 231 MiB
Duration : 20 min 42s
Overall bit rate : 1.563 kb/s
Movie name : Be Cool, Scooby-Doo! - S02E08 The Curse Of Kaniaku [Compressed] 1080i HDMania
Writing application : Lavf56.40.101

Wideo
ID : 0
Format : MPEG-4 Visual
Format profile : Advanced Simple@L5
Format settings, BVOP : 2
Format settings, QPel : Nie
Format settings, GMC : Brak punktów podziału
Format settings, Matrix : Default (MPEG)
Muxing mode : Pakietowy strumień bitów
Codec ID : XVID
Codec ID/Hint : XviD
Duration : 20 min 39s
Bit rate : 1.425 kb/s
Width : 720 pikseli
Height : 404 piksele
Display aspect ratio : 16:9
Frame rate : 25,000 kl/s
Color space : YUV
Chroma subsampling : 4:2:0
Bit depth : 8 bitów
Scan type : Progresywny
Bits/(Pixel*Frame) : 0.196
Stream size : 211 MiB (91%)
Writing library : XviD 67

Audio
ID : 1
Format : MPEG Audio
Format version : Version 1
Format profile : Layer 3
Mode : Joint stereo
Mode extension : MS Stereo
Codec ID : 55
Codec ID/Hint : MP3
Duration : 20 min 42s
Bit rate mode : Stała
Bit rate : 128 kb/s
Channel(s) : 2 kanały
Sampling rate : 48,0 kHz
Stream size : 19,0 MiB (8%)
Alignment : Wyrównane w przeplocie
Interleave, duration : 24 ms (0,60 klatka wideo)

Kod:
Tekst widoczny dla zalogowanych.

Kod:
Tekst widoczny dla zalogowanych.
_____
Jeżeli pobrałeś albo spodobał Ci się mój post lub obejrzałeś moje materiały kliknij dziękuję to nic Cię nie kosztuje i za wszystkie bardzo dziękuje!!! :dziękuję:

Obraz
Sygnatura•••
Jest w serwisieyenxKopiuj nick
yenx

Płeć:
Dołączył:
Punkty: 106761$
Podziękowania: 2231
Posty: 5459
Dubbing PL / PL
ocenił na: 0
Wyluzuj, Scooby-Doo / Be Cool, Scooby-Doo! (2017) S02E07 1080i HDMania | Audio: Dubbing PL + Angielski
Ogólne
Unique ID : 246927832688536526378992727267407999700 (0xB9C49219E72F2CA894262323D31AB2D4)
Complete name : Be Cool, Scooby-Doo! - S02E07 Halloween [Compressed] 1080i HDMania.mkv
Format : Matroska
Format version : Version 4 / Version 2
File size : 637 MiB
Duration : 20 min 38s
Overall bit rate : 4.312 kb/s
Encoded date : UTC 2017-10-30 17:23:31
Writing application : mkvmerge v17.0.0 ('Be Ur Friend') 64-bit
Writing library : libebml v1.3.5 + libmatroska v1.4.8

Wideo
ID : 1
Format : AVC
Format/Info : Advanced Video Codec
Format profile : High@L4.1
Format settings : CABAC / 3 Ref Frames
Format settings, CABAC : Tak
Format settings, ReFrames : 3 klatki
Codec ID : V_MPEG4/ISO/AVC
Duration : 20 min 38s
Bit rate mode : Stała
Bit rate : 4.000 kb/s
Width : 1.920 pikseli
Height : 1.080 pikseli
Display aspect ratio : 16:9
Frame rate mode : Zmienny
Frame rate : 50,000 kl/s
Original frame rate : 25,000 kl/s
Standard : PAL
Color space : YUV
Chroma subsampling : 4:2:0
Bit depth : 8 bitów
Scan type : Z przeplotem
Scan order : Górne pole wpierw
Bits/(Pixel*Frame) : 0.039
Stream size : 575 MiB (90%)
Default : Tak
Forced : Nie
Color range : Limited
Color primaries : BT.709
Transfer characteristics : BT.709
Matrix coefficients : BT.709

Audio #1
ID : 2
Format : AAC
Format/Info : Advanced Audio Codec
Format profile : LC
Codec ID : A_AAC-2
Duration : 20 min 38s
Bit rate : 192 kb/s
Channel(s) : 2 kanały
Channel positions : Front: L R
Sampling rate : 48,0 kHz
Frame rate : 46,875 kl/s (1024 SPF)
Stream size : 28,3 MiB (4%)
Language : Polski
Default : Tak
Forced : Nie

Audio #2
ID : 3
Format : AAC
Format/Info : Advanced Audio Codec
Format profile : LC
Codec ID : A_AAC-2
Duration : 20 min 38s
Bit rate : 221 kb/s
Channel(s) : 2 kanały
Channel positions : Front: L R
Sampling rate : 48,0 kHz
Frame rate : 46,875 kl/s (1024 SPF)
Stream size : 32,7 MiB (5%)
Language : Angielski
Default : Nie
Forced : Nie

Kod:
Tekst widoczny dla zalogowanych.
_____
Jeżeli pobrałeś albo spodobał Ci się mój post lub obejrzałeś moje materiały kliknij dziękuję to nic Cię nie kosztuje i za wszystkie bardzo dziękuje!!! :dziękuję:

Obraz
Sygnatura•••
Podziękowania dla autora posta:
Solek69
Jest w serwisieyenxKopiuj nick
yenx

Płeć:
Dołączył:
Punkty: 106761$
Podziękowania: 2231
Posty: 5459
Dubbing PL / PL
ocenił na: 0
Wyluzuj, Scooby-Doo / Be Cool, Scooby-Doo! (2017) S02E16 1080i HDMania | Audio: Dubbing PL + Angielski
Ogólne
Unique ID : 213922738091053063280130946105522830955 (0xA0F0054D15FA2DD6B08BE9743428BE6B)
Complete name : Be Cool, Scooby-Doo! - S02E16 American Goth [Compressed] 1080i HDMania.mkv
Format : Matroska
Format version : Version 4 / Version 2
File size : 629 MiB
Duration : 20 min 46s
Overall bit rate : 4.233 kb/s
Encoded date : UTC 2017-11-14 20:20:28
Writing application : mkvmerge v17.0.0 ('Be Ur Friend') 64-bit
Writing library : libebml v1.3.5 + libmatroska v1.4.8

Wideo
ID : 1
Format : AVC
Format/Info : Advanced Video Codec
Format profile : High@L4.1
Format settings : CABAC / 3 Ref Frames
Format settings, CABAC : Tak
Format settings, ReFrames : 3 klatki
Codec ID : V_MPEG4/ISO/AVC
Duration : 20 min 46s
Bit rate mode : Stała
Bit rate : 4.000 kb/s
Width : 1.920 pikseli
Height : 1.080 pikseli
Display aspect ratio : 16:9
Frame rate mode : Zmienny
Frame rate : 50,000 kl/s
Original frame rate : 25,000 kl/s
Standard : PAL
Color space : YUV
Chroma subsampling : 4:2:0
Bit depth : 8 bitów
Scan type : Z przeplotem
Scan order : Górne pole wpierw
Bits/(Pixel*Frame) : 0.039
Stream size : 567 MiB (90%)
Default : Tak
Forced : Nie
Color range : Limited
Color primaries : BT.709
Transfer characteristics : BT.709
Matrix coefficients : BT.709

Audio #1
ID : 2
Format : AAC
Format/Info : Advanced Audio Codec
Format profile : LC
Codec ID : A_AAC-2
Duration : 20 min 46s
Bit rate : 192 kb/s
Channel(s) : 2 kanały
Channel positions : Front: L R
Sampling rate : 48,0 kHz
Frame rate : 46,875 kl/s (1024 SPF)
Stream size : 28,5 MiB (5%)
Language : Polski
Default : Tak
Forced : Nie

Audio #2
ID : 3
Format : AAC
Format/Info : Advanced Audio Codec
Format profile : LC
Codec ID : A_AAC-2
Duration : 20 min 46s
Bit rate : 221 kb/s
Channel(s) : 2 kanały
Channel positions : Front: L R
Sampling rate : 48,0 kHz
Frame rate : 46,875 kl/s (1024 SPF)
Stream size : 32,9 MiB (5%)
Language : Angielski
Default : Nie
Forced : Nie

Kod:
Tekst widoczny dla zalogowanych.
_____
Jeżeli pobrałeś albo spodobał Ci się mój post lub obejrzałeś moje materiały kliknij dziękuję to nic Cię nie kosztuje i za wszystkie bardzo dziękuje!!! :dziękuję:

Obraz
Sygnatura•••
Podziękowania dla autora posta:
Solek69
Jest w serwisieyenxKopiuj nick
yenx

Płeć:
Dołączył:
Punkty: 106761$
Podziękowania: 2231
Posty: 5459
Dubbing PL / PL
ocenił na: 0
Wyluzuj, Scooby-Doo / Be Cool, Scooby-Doo! (2017) S02E22 1080i HDMania | Audio: Dubbing PL + Angielski
Ogólne
Unique ID : 178909841451363196181017129153004733073 (0x8698C837AF2FABA4A05C05D1C75A8291)
Complete name : Be Cool, Scooby-Doo! - S02E22 Protein Titans 2 [Compressed] 1080i HDMania.mkv
Format : Matroska
Format version : Version 4 / Version 2
File size : 655 MiB
Duration : 21 min 13s
Overall bit rate : 4.318 kb/s
Encoded date : UTC 2017-11-15 21:18:07
Writing application : mkvmerge v17.0.0 ('Be Ur Friend') 64-bit
Writing library : libebml v1.3.5 + libmatroska v1.4.8

Wideo
ID : 1
Format : AVC
Format/Info : Advanced Video Codec
Format profile : High@L4.1
Format settings : CABAC / 3 Ref Frames
Format settings, CABAC : Tak
Format settings, ReFrames : 3 klatki
Codec ID : V_MPEG4/ISO/AVC
Duration : 21 min 13s
Bit rate mode : Stała
Bit rate : 4.000 kb/s
Width : 1.920 pikseli
Height : 1.080 pikseli
Display aspect ratio : 16:9
Frame rate mode : Zmienny
Frame rate : 50,000 kl/s
Original frame rate : 25,000 kl/s
Standard : PAL
Color space : YUV
Chroma subsampling : 4:2:0
Bit depth : 8 bitów
Scan type : Z przeplotem
Scan order : Górne pole wpierw
Bits/(Pixel*Frame) : 0.039
Stream size : 592 MiB (90%)
Default : Tak
Forced : Nie
Color range : Limited
Color primaries : BT.709
Transfer characteristics : BT.709
Matrix coefficients : BT.709

Audio #1
ID : 2
Format : AAC
Format/Info : Advanced Audio Codec
Format profile : LC
Codec ID : A_AAC-2
Duration : 21 min 13s
Bit rate : 192 kb/s
Channel(s) : 2 kanały
Channel positions : Front: L R
Sampling rate : 48,0 kHz
Frame rate : 46,875 kl/s (1024 SPF)
Stream size : 29,1 MiB (4%)
Language : Polski
Default : Tak
Forced : Nie

Audio #2
ID : 3
Format : AAC
Format/Info : Advanced Audio Codec
Format profile : LC
Codec ID : A_AAC-2
Duration : 21 min 13s
Bit rate : 221 kb/s
Channel(s) : 2 kanały
Channel positions : Front: L R
Sampling rate : 48,0 kHz
Frame rate : 46,875 kl/s (1024 SPF)
Stream size : 33,6 MiB (5%)
Language : Angielski
Default : Nie
Forced : Nie

Kod:
Tekst widoczny dla zalogowanych.
_____
Jeżeli pobrałeś albo spodobał Ci się mój post lub obejrzałeś moje materiały kliknij dziękuję to nic Cię nie kosztuje i za wszystkie bardzo dziękuje!!! :dziękuję:

Obraz
Sygnatura•••
Podziękowania dla autora posta:
Solek69
Jest w serwisieyenxKopiuj nick
yenx

Płeć:
Dołączył:
Punkty: 106761$
Podziękowania: 2231
Posty: 5459
Dubbing PL / PL
ocenił na: 0
Wyluzuj, Scooby-Doo / Be Cool, Scooby-Doo! (2017) S02E18 1080i HDMania | Audio: Dubbing PL + Angielski
Ogólne
Unique ID : 204265434151092103106523667036791127056 (0x99AC1774A2FE8121BF679FF2524C3C10)
Complete name : Be Cool, Scooby-Doo! - S02E18 Ghost In The Mystery Machine [Compressed] 1080i HDMania.mkv
Format : Matroska
Format version : Version 4 / Version 2
File size : 635 MiB
Duration : 20 min 50s
Overall bit rate : 4.260 kb/s
Encoded date : UTC 2017-11-16 20:57:40
Writing application : mkvmerge v17.0.0 ('Be Ur Friend') 64-bit
Writing library : libebml v1.3.5 + libmatroska v1.4.8

Wideo
ID : 1
Format : AVC
Format/Info : Advanced Video Codec
Format profile : High@L4.1
Format settings : CABAC / 3 Ref Frames
Format settings, CABAC : Tak
Format settings, ReFrames : 3 klatki
Codec ID : V_MPEG4/ISO/AVC
Duration : 20 min 50s
Bit rate mode : Stała
Bit rate : 4.000 kb/s
Width : 1.920 pikseli
Height : 1.080 pikseli
Display aspect ratio : 16:9
Frame rate mode : Zmienny
Frame rate : 50,000 kl/s
Original frame rate : 25,000 kl/s
Standard : PAL
Color space : YUV
Chroma subsampling : 4:2:0
Bit depth : 8 bitów
Scan type : Z przeplotem
Scan order : Górne pole wpierw
Bits/(Pixel*Frame) : 0.039
Stream size : 573 MiB (90%)
Default : Tak
Forced : Nie
Color range : Limited
Color primaries : BT.709
Transfer characteristics : BT.709
Matrix coefficients : BT.709

Audio #1
ID : 2
Format : AAC
Format/Info : Advanced Audio Codec
Format profile : LC
Codec ID : A_AAC-2
Duration : 20 min 50s
Bit rate : 192 kb/s
Channel(s) : 2 kanały
Channel positions : Front: L R
Sampling rate : 48,0 kHz
Frame rate : 46,875 kl/s (1024 SPF)
Stream size : 28,6 MiB (5%)
Language : Polski
Default : Tak
Forced : Nie

Audio #2
ID : 3
Format : AAC
Format/Info : Advanced Audio Codec
Format profile : LC
Codec ID : A_AAC-2
Duration : 20 min 50s
Bit rate : 221 kb/s
Channel(s) : 2 kanały
Channel positions : Front: L R
Sampling rate : 48,0 kHz
Frame rate : 46,875 kl/s (1024 SPF)
Stream size : 33,0 MiB (5%)
Language : Angielski
Default : Nie
Forced : Nie

Kod:
Tekst widoczny dla zalogowanych.
_____
Jeżeli pobrałeś albo spodobał Ci się mój post lub obejrzałeś moje materiały kliknij dziękuję to nic Cię nie kosztuje i za wszystkie bardzo dziękuje!!! :dziękuję:

Obraz
Sygnatura•••
Podziękowania dla autora posta:
Solek69