Zaloguj
Wyluzuj, Scooby-Doo

Be Cool, Scooby-Doo!
Kreskówka, 2015
7,83  głosy: 6Oceń:
Ulubiony
Do obejrzenia
Obejrzany
Premiera:
28 listopada 2015Polska5 października 2015
Produkcja:

Dodaj sezon
Jest w serwisieyenxKopiuj nick
yenx

Płeć:
Dołączył:
Punkty: 106788$
Podziękowania: 2234
Posty: 5464
Dubbing PL / PL
ocenił na: 0
Wyluzuj, Scooby-Doo / Be Cool, Scooby-Doo! (2017) S02E01 1080i HDMania | Audio: Dubbing PL + Angielski

Ogólne
Unique ID : 243912699736318598887117089493914909062 (0xB77FE091BE06BAFF818A1DAAFEF67986)
Complete name : Be Cool, Scooby-Doo! - S02E01 Some Fred Time [Compressed] 1080i HDMania.mkv
Format : Matroska
Format version : Version 4 / Version 2
File size : 661 MiB
Duration : 21 min 31s
Overall bit rate : 4.291 kb/s
Encoded date : UTC 2017-07-18 16:59:42
Writing application : mkvmerge v13.0.0 ('The Juggler') 64bit
Writing library : libebml v1.3.4 + libmatroska v1.4.5

Wideo
ID : 1
Format : AVC
Format/Info : Advanced Video Codec
Format profile : High@L4.1
Format settings, CABAC : Tak
Format settings, ReFrames : 3 klatki
Codec ID : V_MPEG4/ISO/AVC
Duration : 21 min 31s
Bit rate mode : Stała
Bit rate : 4.000 kb/s
Width : 1.920 pikseli
Height : 1.080 pikseli
Display aspect ratio : 16:9
Frame rate mode : Zmienny
Frame rate : 50,000 kl/s
Original frame rate : 25,000 kl/s
Standard : PAL
Color space : YUV
Chroma subsampling : 4:2:0
Bit depth : 8 bitów
Scan type : Z przeplotem
Scan order : Górne pole wpierw
Bits/(Pixel*Frame) : 0.039
Stream size : 596 MiB (90%)
Default : Tak
Forced : Nie
Color range : Limited
Color primaries : BT.709
Transfer characteristics : BT.709
Matrix coefficients : BT.709

Audio #1
ID : 2
Format : AAC
Format/Info : Advanced Audio Codec
Format profile : LC
Codec ID : A_AAC
Duration : 21 min 31s
Bit rate : 192 kb/s
Channel(s) : 2 kanały
Channel positions : Front: L R
Sampling rate : 48,0 kHz
Frame rate : 46,875 kl/s (1024 SPF)
Stream size : 29,6 MiB (4%)
Language : Polski
Default : Tak
Forced : Nie

Audio #2
ID : 3
Format : AAC
Format/Info : Advanced Audio Codec
Format profile : LC
Codec ID : A_AAC
Duration : 21 min 31s
Bit rate : 221 kb/s
Channel(s) : 2 kanały
Channel positions : Front: L R
Sampling rate : 48,0 kHz
Frame rate : 46,875 kl/s (1024 SPF)
Stream size : 34,1 MiB (5%)
Language : Angielski
Default : Nie
Forced : Nie

Kod:
Tekst widoczny dla zalogowanych.
_____
Jeżeli pobrałeś albo spodobał Ci się mój post lub obejrzałeś moje materiały kliknij dziękuję to nic Cię nie kosztuje i za wszystkie bardzo dziękuje!!! :dziękuję:

Obraz
Sygnatura•••
Podziękowania dla autora posta:
Solek69
Jest w serwisieyenxKopiuj nick
yenx

Płeć:
Dołączył:
Punkty: 106788$
Podziękowania: 2234
Posty: 5464
Dubbing PL / PL
ocenił na: 0
Wyluzuj, Scooby-Doo / Be Cool, Scooby-Doo! (2017) S02E02 1080i HDMania | Audio: Dubbing PL + Angielski
Ogólne
Unique ID : 216604200066989980400971213345122667891 (0xA2F473956EAB548281AEC566DAE7CD73)
Complete name : Be Cool, Scooby-Doo! - S02E02 There Wolf [Compressed] 1080i HDMania.mkv
Format : Matroska
Format version : Version 4 / Version 2
File size : 661 MiB
Duration : 21 min 28s
Overall bit rate : 4.300 kb/s
Encoded date : UTC 2017-07-18 17:02:30
Writing application : mkvmerge v13.0.0 ('The Juggler') 64bit
Writing library : libebml v1.3.4 + libmatroska v1.4.5

Wideo
ID : 1
Format : AVC
Format/Info : Advanced Video Codec
Format profile : High@L4.1
Format settings, CABAC : Tak
Format settings, ReFrames : 3 klatki
Codec ID : V_MPEG4/ISO/AVC
Duration : 21 min 28s
Bit rate mode : Stała
Bit rate : 4.000 kb/s
Width : 1.920 pikseli
Height : 1.080 pikseli
Display aspect ratio : 16:9
Frame rate mode : Zmienny
Frame rate : 50,000 kl/s
Original frame rate : 25,000 kl/s
Standard : PAL
Color space : YUV
Chroma subsampling : 4:2:0
Bit depth : 8 bitów
Scan type : Z przeplotem
Scan order : Górne pole wpierw
Bits/(Pixel*Frame) : 0.039
Stream size : 596 MiB (90%)
Default : Tak
Forced : Nie
Color range : Limited
Color primaries : BT.709
Transfer characteristics : BT.709
Matrix coefficients : BT.709

Audio #1
ID : 2
Format : AAC
Format/Info : Advanced Audio Codec
Format profile : LC
Codec ID : A_AAC
Duration : 21 min 28s
Bit rate : 192 kb/s
Channel(s) : 2 kanały
Channel positions : Front: L R
Sampling rate : 48,0 kHz
Frame rate : 46,875 kl/s (1024 SPF)
Stream size : 29,5 MiB (4%)
Language : Polski
Default : Tak
Forced : Nie

Audio #2
ID : 3
Format : AAC
Format/Info : Advanced Audio Codec
Format profile : LC
Codec ID : A_AAC
Duration : 21 min 28s
Bit rate : 221 kb/s
Channel(s) : 2 kanały
Channel positions : Front: L R
Sampling rate : 48,0 kHz
Frame rate : 46,875 kl/s (1024 SPF)
Stream size : 34,0 MiB (5%)
Language : Angielski
Default : Nie
Forced : Nie

Kod:
Tekst widoczny dla zalogowanych.
_____
Jeżeli pobrałeś albo spodobał Ci się mój post lub obejrzałeś moje materiały kliknij dziękuję to nic Cię nie kosztuje i za wszystkie bardzo dziękuje!!! :dziękuję:

Obraz
Sygnatura•••
Podziękowania dla autora posta:
Solek69
Jest w serwisieyenxKopiuj nick
yenx

Płeć:
Dołączył:
Punkty: 106788$
Podziękowania: 2234
Posty: 5464
Dubbing PL / PL
ocenił na: 0
Wyluzuj, Scooby-Doo / Be Cool, Scooby-Doo! (2017) S02E03 1080i HDMania | Audio: Dubbing PL + Angielski
Ogólne
Unique ID : 250662412013541238986471912356229981495 (0xBC93D313EF2471FB9D330B715B1CA537)
Complete name : Be Cool, Scooby-Doo! - S02E03 Renn Scare [Compressed] 1080i HDMania.mkv
Format : Matroska
Format version : Version 4 / Version 2
File size : 665 MiB
Duration : 21 min 19s
Overall bit rate : 4.359 kb/s
Encoded date : UTC 2017-07-19 18:56:38
Writing application : mkvmerge v13.0.0 ('The Juggler') 64bit
Writing library : libebml v1.3.4 + libmatroska v1.4.5

Wideo
ID : 1
Format : AVC
Format/Info : Advanced Video Codec
Format profile : High@L4.1
Format settings, CABAC : Tak
Format settings, ReFrames : 3 klatki
Codec ID : V_MPEG4/ISO/AVC
Duration : 21 min 19s
Bit rate mode : Stała
Bit rate : 4.000 kb/s
Width : 1.920 pikseli
Height : 1.080 pikseli
Display aspect ratio : 16:9
Frame rate mode : Zmienny
Frame rate : 50,000 kl/s
Original frame rate : 25,000 kl/s
Standard : PAL
Color space : YUV
Chroma subsampling : 4:2:0
Bit depth : 8 bitów
Scan type : Z przeplotem
Scan order : Górne pole wpierw
Bits/(Pixel*Frame) : 0.039
Stream size : 601 MiB (90%)
Default : Tak
Forced : Nie
Color range : Limited
Color primaries : BT.709
Transfer characteristics : BT.709
Matrix coefficients : BT.709

Audio #1
ID : 2
Format : AAC
Format/Info : Advanced Audio Codec
Format profile : LC
Codec ID : A_AAC
Duration : 21 min 19s
Bit rate : 192 kb/s
Channel(s) : 2 kanały
Channel positions : Front: L R
Sampling rate : 48,0 kHz
Frame rate : 46,875 kl/s (1024 SPF)
Stream size : 29,3 MiB (4%)
Language : Polski
Default : Tak
Forced : Nie

Audio #2
ID : 3
Format : AAC
Format/Info : Advanced Audio Codec
Format profile : LC
Codec ID : A_AAC
Duration : 21 min 19s
Bit rate : 221 kb/s
Channel(s) : 2 kanały
Channel positions : Front: L R
Sampling rate : 48,0 kHz
Frame rate : 46,875 kl/s (1024 SPF)
Stream size : 33,8 MiB (5%)
Language : Angielski
Default : Nie
Forced : Nie

Kod:
Tekst widoczny dla zalogowanych.
_____
Jeżeli pobrałeś albo spodobał Ci się mój post lub obejrzałeś moje materiały kliknij dziękuję to nic Cię nie kosztuje i za wszystkie bardzo dziękuje!!! :dziękuję:

Obraz
Sygnatura•••
Podziękowania dla autora posta:
Solek69
Jest w serwisieyenxKopiuj nick
yenx

Płeć:
Dołączył:
Punkty: 106788$
Podziękowania: 2234
Posty: 5464
Dubbing PL / PL
ocenił na: 0
Wyluzuj, Scooby-Doo / Be Cool, Scooby-Doo! (2017) S02E04 1080i HDMania | Audio: Dubbing PL + Angielski
Ogólne
UniqueID/String : 249521537362907049885814265433477934174 (0xBBB8199D613EA2A0849B2A5DFFA8EC5E)
Pełna ścieżka : Be Cool, Scooby-Doo! - S02E04 How To Train Your Coward [Compressed] 1080i HDMania.mkv
Format : Matroska
Wersja formatu : Version 4 / Version 2
Rozmiar pliku : 662 MiB
Czas trwania : 21 min 20s
Całkowita przepływność bitów : 4.337 kb/s
Zdekodowana data : UTC 2017-07-20 17:07:34
Aplikacja zapisująca : mkvmerge v13.0.0 ('The Juggler') 64bit
Biblioteka zapisująca : libebml v1.3.4 + libmatroska v1.4.5

Wideo
ID : 1
Format : AVC
Format/Informacja : Advanced Video Codec
Profil formatu : High@L4.1
Ustawienia formatu, CABAC : Tak
Ustawienia formatu, poklatkowy : 3 klatki
ID kodeka : V_MPEG4/ISO/AVC
Czas trwania : 21 min 20s
Rodzaj przepływności : Stała
Przepływność bitów : 4.000 kb/s
Szerokość : 1.920 pikseli
Wysokość : 1.080 pikseli
Proporcje obrazu : 16:9
Tryb wyświetlania klatek : Zmienny
Szybkość wyświetlania klatek : 50,000 kl/s
Oryginalna szybkość wyświetlania klatek : 25,000 kl/s
Standard : PAL
ColorSpace : YUV
ChromaSubsampling/String : 4:2:0
BitDepth/String : 8 bitów
Rodzaj skanu : Z przeplotem
Kolejność skanu : Górne pole wpierw
bity/(piksele*ramki) : 0.039
Rozmiar strumienia : 598 MiB (90%)
Default : Tak
Forced : Nie
colour_range : Limited
colour_primaries : BT.709
transfer_characteristics : BT.709
matrix_coefficients : BT.709

Audio #1
ID : 2
Format : AAC
Format/Informacja : Advanced Audio Codec
Profil formatu : LC
ID kodeka : A_AAC
Czas trwania : 21 min 20s
Przepływność bitów : 192 kb/s
Kanały : 2 kanały
Rozmieszczenie kanałów : Front: L R
Częstotliwość próbkowania : 48,0 kHz
Szybkość wyświetlania klatek : 46,875 kl/s (1024 SPF)
Rozmiar strumienia : 29,3 MiB (4%)
Język : Polski
Default : Tak
Forced : Nie

Audio #2
ID : 3
Format : AAC
Format/Informacja : Advanced Audio Codec
Profil formatu : LC
ID kodeka : A_AAC
Czas trwania : 21 min 20s
Przepływność bitów : 221 kb/s
Kanały : 2 kanały
Rozmieszczenie kanałów : Front: L R
Częstotliwość próbkowania : 48,0 kHz
Szybkość wyświetlania klatek : 46,875 kl/s (1024 SPF)
Rozmiar strumienia : 33,8 MiB (5%)
Język : Angielski
Default : Nie
Forced : Nie

Kod:
Tekst widoczny dla zalogowanych.
_____
Jeżeli pobrałeś albo spodobał Ci się mój post lub obejrzałeś moje materiały kliknij dziękuję to nic Cię nie kosztuje i za wszystkie bardzo dziękuje!!! :dziękuję:

Obraz
Sygnatura•••
Jest w serwisieyenxKopiuj nick
yenx

Płeć:
Dołączył:
Punkty: 106788$
Podziękowania: 2234
Posty: 5464
Dubbing PL / PL
ocenił na: 0
Wyluzuj, Scooby-Doo / Be Cool, Scooby-Doo! (2017) S02E05 1080i HDMania | Audio: Dubbing PL + Angielski
Ogólne
Unique ID : 237442192283468427417929581757235787901 (0xB2A1B3EBE0DD31DDB36D43DFA87CF87D)
Complete name : Be Cool, Scooby-Doo! - S02E05 Worst In Show [Compressed] 1080i HDMania.mkv
Format : Matroska
Format version : Version 4 / Version 2
File size : 646 MiB
Duration : 20 min 56s
Overall bit rate : 4.311 kb/s
Encoded date : UTC 2017-07-21 18:50:47
Writing application : mkvmerge v13.0.0 ('The Juggler') 64bit
Writing library : libebml v1.3.4 + libmatroska v1.4.5

Wideo
ID : 1
Format : AVC
Format/Info : Advanced Video Codec
Format profile : High@L4.1
Format settings, CABAC : Tak
Format settings, ReFrames : 3 klatki
Codec ID : V_MPEG4/ISO/AVC
Duration : 20 min 55s
Bit rate mode : Stała
Bit rate : 4.000 kb/s
Width : 1.920 pikseli
Height : 1.080 pikseli
Display aspect ratio : 16:9
Frame rate mode : Zmienny
Frame rate : 50,000 kl/s
Original frame rate : 25,000 kl/s
Standard : PAL
Color space : YUV
Chroma subsampling : 4:2:0
Bit depth : 8 bitów
Scan type : Z przeplotem
Scan order : Górne pole wpierw
Bits/(Pixel*Frame) : 0.039
Stream size : 583 MiB (90%)
Default : Tak
Forced : Nie
Color range : Limited
Color primaries : BT.709
Transfer characteristics : BT.709
Matrix coefficients : BT.709

Audio #1
ID : 2
Format : AAC
Format/Info : Advanced Audio Codec
Format profile : LC
Codec ID : A_AAC
Duration : 20 min 56s
Bit rate : 192 kb/s
Channel(s) : 2 kanały
Channel positions : Front: L R
Sampling rate : 48,0 kHz
Frame rate : 46,875 kl/s (1024 SPF)
Stream size : 28,7 MiB (4%)
Language : Polski
Default : Tak
Forced : Nie

Audio #2
ID : 3
Format : AAC
Format/Info : Advanced Audio Codec
Format profile : LC
Codec ID : A_AAC
Duration : 20 min 56s
Bit rate : 221 kb/s
Channel(s) : 2 kanały
Channel positions : Front: L R
Sampling rate : 48,0 kHz
Frame rate : 46,875 kl/s (1024 SPF)
Stream size : 33,1 MiB (5%)
Language : Angielski
Default : Nie
Forced : Nie

Kod:
Tekst widoczny dla zalogowanych.
_____
Jeżeli pobrałeś albo spodobał Ci się mój post lub obejrzałeś moje materiały kliknij dziękuję to nic Cię nie kosztuje i za wszystkie bardzo dziękuje!!! :dziękuję:

Obraz
Sygnatura•••
Jest w serwisieyenxKopiuj nick
yenx

Płeć:
Dołączył:
Punkty: 106788$
Podziękowania: 2234
Posty: 5464
Dubbing PL / PL
ocenił na: 0
Wyluzuj, Scooby-Doo / Be Cool, Scooby-Doo! (2017) S02E06 1080i HDMania | Audio: Dubbing PL + Angielski
Ogólne
Unique ID : 218366083933364648916736638080232397136 (0xA447C72A42866CD8807426D607171950)
Complete name : Be Cool, Scooby-Doo! - S02E06 Mysteries On The Disorient Express [Compressed] 1080i HDMania.mkv
Format : Matroska
Format version : Version 4 / Version 2
File size : 647 MiB
Duration : 21 min 0s
Overall bit rate : 4.307 kb/s
Encoded date : UTC 2017-07-25 16:37:25
Writing application : mkvmerge v13.0.0 ('The Juggler') 64bit
Writing library : libebml v1.3.4 + libmatroska v1.4.5

Wideo
ID : 1
Format : AVC
Format/Info : Advanced Video Codec
Format profile : High@L4.1
Format settings, CABAC : Tak
Format settings, ReFrames : 3 klatki
Codec ID : V_MPEG4/ISO/AVC
Duration : 21 min 0s
Bit rate mode : Stała
Bit rate : 4.000 kb/s
Width : 1.920 pikseli
Height : 1.080 pikseli
Display aspect ratio : 16:9
Frame rate mode : Zmienny
Frame rate : 50,000 kl/s
Original frame rate : 25,000 kl/s
Standard : PAL
Color space : YUV
Chroma subsampling : 4:2:0
Bit depth : 8 bitów
Scan type : Z przeplotem
Scan order : Górne pole wpierw
Bits/(Pixel*Frame) : 0.039
Stream size : 584 MiB (90%)
Default : Tak
Forced : Nie
Color range : Limited
Color primaries : BT.709
Transfer characteristics : BT.709
Matrix coefficients : BT.709

Audio #1
ID : 2
Format : AAC
Format/Info : Advanced Audio Codec
Format profile : LC
Codec ID : A_AAC
Duration : 21 min 0s
Bit rate : 192 kb/s
Channel(s) : 2 kanały
Channel positions : Front: L R
Sampling rate : 48,0 kHz
Frame rate : 46,875 kl/s (1024 SPF)
Stream size : 28,8 MiB (4%)
Language : Polski
Default : Tak
Forced : Nie

Audio #2
ID : 3
Format : AAC
Format/Info : Advanced Audio Codec
Format profile : LC
Codec ID : A_AAC
Duration : 21 min 0s
Bit rate : 221 kb/s
Channel(s) : 2 kanały
Channel positions : Front: L R
Sampling rate : 48,0 kHz
Frame rate : 46,875 kl/s (1024 SPF)
Stream size : 33,3 MiB (5%)
Language : Angielski
Default : Nie
Forced : Nie

Kod:
Tekst widoczny dla zalogowanych.
_____
Jeżeli pobrałeś albo spodobał Ci się mój post lub obejrzałeś moje materiały kliknij dziękuję to nic Cię nie kosztuje i za wszystkie bardzo dziękuje!!! :dziękuję:

Obraz
Sygnatura•••
Jest w serwisieyenxKopiuj nick
yenx

Płeć:
Dołączył:
Punkty: 106788$
Podziękowania: 2234
Posty: 5464
Dubbing PL / PL
ocenił na: 0
Wyluzuj, Scooby-Doo / Be Cool, Scooby-Doo! (2017) S02E01-E06 480i HDMania | Audio: Dubbing PL

Ogólne
Complete name : Be Cool, Scooby-Doo! - S02E01 Some Fred Time [Compressed] 480i HDMania.avi
Format : AVI
Format/Info : Audio Video Interleave
File size : 203 MiB
Duration : 21 min 31s
Overall bit rate : 1.320 kb/s
Movie name : Be Cool, Scooby-Doo! - S02E01 Some Fred Time [Compressed] 1080i HDMania
Writing application : Lavf56.40.101

Wideo
ID : 0
Format : MPEG-4 Visual
Format profile : Advanced Simple@L5
Format settings, BVOP : 2
Format settings, QPel : Nie
Format settings, GMC : Brak punktów podziału
Format settings, Matrix : Default (MPEG)
Muxing mode : Pakietowy strumień bitów
Codec ID : XVID
Codec ID/Hint : XviD
Duration : 21 min 31s
Bit rate : 1.179 kb/s
Width : 720 pikseli
Height : 404 piksele
Display aspect ratio : 16:9
Frame rate : 25,000 kl/s
Color space : YUV
Chroma subsampling : 4:2:0
Bit depth : 8 bitów
Scan type : Progresywny
Bits/(Pixel*Frame) : 0.162
Stream size : 182 MiB (89%)
Writing library : XviD 67

Audio
ID : 1
Format : MPEG Audio
Format version : Version 1
Format profile : Layer 3
Mode : Joint stereo
Codec ID : 55
Codec ID/Hint : MP3
Duration : 21 min 31s
Bit rate mode : Stała
Bit rate : 128 kb/s
Channel(s) : 2 kanały
Sampling rate : 48,0 kHz
Stream size : 19,7 MiB (10%)
Alignment : Wyrównane w przeplocie
Interleave, duration : 24 ms (0,60 klatka wideo)

Kod:
Tekst widoczny dla zalogowanych.

Kod:
Tekst widoczny dla zalogowanych.
_____
Jeżeli pobrałeś albo spodobał Ci się mój post lub obejrzałeś moje materiały kliknij dziękuję to nic Cię nie kosztuje i za wszystkie bardzo dziękuje!!! :dziękuję:

Obraz
Sygnatura•••
Jest w serwisieyenxKopiuj nick
yenx

Płeć:
Dołączył:
Punkty: 106788$
Podziękowania: 2234
Posty: 5464
Dubbing PL / PL
ocenił na: 0
Wyluzuj, Scooby-Doo / Be Cool, Scooby-Doo! (2017) S02E08 1080i HDMania | Audio: Dubbing PL + Angielski
Ogólne
Unique ID : 186592752417264848441989837781677355904 (0x8C6074F945E4929D9D5A28448F67B380)
Complete name : Be Cool, Scooby-Doo! - S02E08 The Curse Of Kaniaku [Compressed] 1080i HDMania.mkv
Format : Matroska
Format version : Version 4 / Version 2
File size : 630 MiB
Duration : 20 min 42s
Overall bit rate : 4.254 kb/s
Encoded date : UTC 2017-08-14 17:22:23
Writing application : mkvmerge v14.0.0 ('Flow') 64bit
Writing library : libebml v1.3.4 + libmatroska v1.4.5

Wideo
ID : 1
Format : AVC
Format/Info : Advanced Video Codec
Format profile : High@L4.1
Format settings, CABAC : Tak
Format settings, ReFrames : 3 klatki
Codec ID : V_MPEG4/ISO/AVC
Duration : 20 min 39s
Bit rate mode : Stała
Bit rate : 4.000 kb/s
Width : 1.920 pikseli
Height : 1.080 pikseli
Display aspect ratio : 16:9
Frame rate mode : Zmienny
Frame rate : 50,000 kl/s
Original frame rate : 25,000 kl/s
Standard : PAL
Color space : YUV
Chroma subsampling : 4:2:0
Bit depth : 8 bitów
Scan type : Z przeplotem
Scan order : Górne pole wpierw
Bits/(Pixel*Frame) : 0.039
Stream size : 568 MiB (90%)
Default : Tak
Forced : Nie
Color range : Limited
Color primaries : BT.709
Transfer characteristics : BT.709
Matrix coefficients : BT.709

Audio #1
ID : 2
Format : AAC
Format/Info : Advanced Audio Codec
Format profile : LC
Codec ID : A_AAC
Duration : 20 min 42s
Bit rate : 192 kb/s
Channel(s) : 2 kanały
Channel positions : Front: L R
Sampling rate : 48,0 kHz
Frame rate : 46,875 kl/s (1024 SPF)
Stream size : 28,4 MiB (5%)
Language : Polski
Default : Tak
Forced : Nie

Audio #2
ID : 3
Format : AAC
Format/Info : Advanced Audio Codec
Format profile : LC
Codec ID : A_AAC
Duration : 20 min 39s
Bit rate : 221 kb/s
Channel(s) : 2 kanały
Channel positions : Front: L R
Sampling rate : 48,0 kHz
Frame rate : 46,875 kl/s (1024 SPF)
Stream size : 32,7 MiB (5%)
Language : Angielski
Default : Nie
Forced : Nie

Kod:
Tekst widoczny dla zalogowanych.
_____
Jeżeli pobrałeś albo spodobał Ci się mój post lub obejrzałeś moje materiały kliknij dziękuję to nic Cię nie kosztuje i za wszystkie bardzo dziękuje!!! :dziękuję:

Obraz
Sygnatura•••
Jest w serwisieyenxKopiuj nick
yenx

Płeć:
Dołączył:
Punkty: 106788$
Podziękowania: 2234
Posty: 5464
Dubbing PL / PL
ocenił na: 0
Wyluzuj, Scooby-Doo / Be Cool, Scooby-Doo! (2017) S02E09 1080i HDMania | Audio: Dubbing PL + Angielski
Ogólne
Unique ID : 242970680323487777002543646948308721589 (0xB6CA736D27887CDD9F9E3320E6929FB5)
Complete name : Be Cool, Scooby-Doo! - S02E09 Vote Velma [Compressed] 1080i HDMania.mkv
Format : Matroska
Format version : Version 4 / Version 2
File size : 641 MiB
Duration : 21 min 2s
Overall bit rate : 4.259 kb/s
Encoded date : UTC 2017-08-16 18:49:26
Writing application : mkvmerge v14.0.0 ('Flow') 64bit
Writing library : libebml v1.3.4 + libmatroska v1.4.5

Wideo
ID : 1
Format : AVC
Format/Info : Advanced Video Codec
Format profile : High@L4.1
Format settings, CABAC : Tak
Format settings, ReFrames : 3 klatki
Codec ID : V_MPEG4/ISO/AVC
Duration : 21 min 2s
Bit rate mode : Stała
Bit rate : 4.000 kb/s
Width : 1.920 pikseli
Height : 1.080 pikseli
Display aspect ratio : 16:9
Frame rate mode : Zmienny
Frame rate : 50,000 kl/s
Original frame rate : 25,000 kl/s
Standard : PAL
Color space : YUV
Chroma subsampling : 4:2:0
Bit depth : 8 bitów
Scan type : Z przeplotem
Scan order : Górne pole wpierw
Bits/(Pixel*Frame) : 0.039
Stream size : 578 MiB (90%)
Default : Tak
Forced : Nie
Color range : Limited
Color primaries : BT.709
Transfer characteristics : BT.709
Matrix coefficients : BT.709

Audio #1
ID : 2
Format : AAC
Format/Info : Advanced Audio Codec
Format profile : LC
Codec ID : A_AAC
Duration : 21 min 2s
Bit rate : 192 kb/s
Channel(s) : 2 kanały
Channel positions : Front: L R
Sampling rate : 48,0 kHz
Frame rate : 46,875 kl/s (1024 SPF)
Stream size : 28,9 MiB (5%)
Language : Polski
Default : Tak
Forced : Nie

Audio #2
ID : 3
Format : AAC
Format/Info : Advanced Audio Codec
Format profile : LC
Codec ID : A_AAC
Duration : 21 min 2s
Bit rate : 221 kb/s
Channel(s) : 2 kanały
Channel positions : Front: L R
Sampling rate : 48,0 kHz
Frame rate : 46,875 kl/s (1024 SPF)
Stream size : 33,3 MiB (5%)
Language : Angielski
Default : Nie
Forced : Nie

Kod:
Tekst widoczny dla zalogowanych.
_____
Jeżeli pobrałeś albo spodobał Ci się mój post lub obejrzałeś moje materiały kliknij dziękuję to nic Cię nie kosztuje i za wszystkie bardzo dziękuje!!! :dziękuję:

Obraz
Sygnatura•••
Jest w serwisieyenxKopiuj nick
yenx

Płeć:
Dołączył:
Punkty: 106788$
Podziękowania: 2234
Posty: 5464
Dubbing PL / PL
ocenił na: 0
Wyluzuj, Scooby-Doo / Be Cool, Scooby-Doo! (2017) S02E11 1080i HDMania | Audio: Dubbing PL + Angielski
Ogólne
Unique ID : 173195132499414367705553755137130238352 (0x824C2B500DC45E24912D7B00B8F61190)
Complete name : Be Cool, Scooby-Doo! - S02E11 In Space [Compressed] 1080i HDMania.mkv
Format : Matroska
Format version : Version 4 / Version 2
File size : 652 MiB
Duration : 21 min 19s
Overall bit rate : 4.273 kb/s
Encoded date : UTC 2017-08-16 16:39:40
Writing application : mkvmerge v14.0.0 ('Flow') 64bit
Writing library : libebml v1.3.4 + libmatroska v1.4.5

Wideo
ID : 1
Format : AVC
Format/Info : Advanced Video Codec
Format profile : High@L4.1
Format settings, CABAC : Tak
Format settings, ReFrames : 3 klatki
Codec ID : V_MPEG4/ISO/AVC
Duration : 21 min 19s
Bit rate mode : Stała
Bit rate : 4.000 kb/s
Width : 1.920 pikseli
Height : 1.080 pikseli
Display aspect ratio : 16:9
Frame rate mode : Zmienny
Frame rate : 50,000 kl/s
Original frame rate : 25,000 kl/s
Standard : PAL
Color space : YUV
Chroma subsampling : 4:2:0
Bit depth : 8 bitów
Scan type : Z przeplotem
Scan order : Górne pole wpierw
Bits/(Pixel*Frame) : 0.039
Stream size : 588 MiB (90%)
Default : Tak
Forced : Nie
Color range : Limited
Color primaries : BT.709
Transfer characteristics : BT.709
Matrix coefficients : BT.709

Audio #1
ID : 2
Format : AAC
Format/Info : Advanced Audio Codec
Format profile : LC
Codec ID : A_AAC
Duration : 21 min 19s
Bit rate : 192 kb/s
Channel(s) : 2 kanały
Channel positions : Front: L R
Sampling rate : 48,0 kHz
Frame rate : 46,875 kl/s (1024 SPF)
Stream size : 29,3 MiB (4%)
Language : Polski
Default : Tak
Forced : Nie

Audio #2
ID : 3
Format : AAC
Format/Info : Advanced Audio Codec
Format profile : LC
Codec ID : A_AAC
Duration : 21 min 19s
Bit rate : 221 kb/s
Channel(s) : 2 kanały
Channel positions : Front: L R
Sampling rate : 48,0 kHz
Frame rate : 46,875 kl/s (1024 SPF)
Stream size : 33,8 MiB (5%)
Language : Angielski
Default : Nie
Forced : Nie

Kod:
Tekst widoczny dla zalogowanych.
_____
Jeżeli pobrałeś albo spodobał Ci się mój post lub obejrzałeś moje materiały kliknij dziękuję to nic Cię nie kosztuje i za wszystkie bardzo dziękuje!!! :dziękuję:

Obraz
Sygnatura•••