Zaloguj
Vampirina

Animowany Dla dzieci Familijny Fantasy
Kreskówka, 2017
10,00  głosy: 1Oceń:
Ulubiony
Do obejrzenia
Obejrzany
Premiera:
28 października 2017Polska1 października 2017
Produkcja:

Dodaj sezon
Nie ma w serwisiegucio1304Kopiuj nick
gucio1304

Płeć:
Dołączył:
Punkty: 1886$
Podziękowania: 164
Posty: 239
Dubbing PL / PL
ocenił na: 0
1 - Blady strach, Podwójna rezerwacja :nowe:
Kod:
Tekst widoczny dla zalogowanych.
Podziękowania dla autora posta:
rotfly
Jest w serwisieyenxKopiuj nick
yenx

Płeć:
Dołączył:
Punkty: 106761$
Podziękowania: 2231
Posty: 5459
Dubbing PL / PL
ocenił na: 0
Vampirina (2017) S01 Multi.1080p.iT.Web-DL.DD2.0.DD5.1.AAC2.0.H.264-RnC | Audio: Dubbing PL + Angielski

Ogólne
Unique ID : 248537079669742481034946843928756374725 (0xBAFA801A635E3A04AF2034DB932A4CC5)
Complete name : Vampirina.2017.S01E01.Going.Batty_Scare.BnB.Multi.1080p.iT.Web-DL.DD2.0.DD5.1.AAC2.0.H.264-RnC.mkv
Format : Matroska
Format version : Version 4 / Version 2
File size : 1.000 MiB
Duration : 24 min 5s
Overall bit rate : 5.805 kb/s
Movie name : RnC | Vampirina S01E01 Going Batty _ Scare B&B
Encoded date : UTC 2017-10-28 16:15:42
Writing application : mkvmerge v17.0.0 ('Be Ur Friend') 64-bit
Writing library : libebml v1.3.5 + libmatroska v1.4.8

Wideo
ID : 1
Format : AVC
Format/Info : Advanced Video Codec
Format profile : High@L4
Format settings : CABAC / 4 Ref Frames
Format settings, CABAC : Tak
Format settings, ReFrames : 4 klatki
Codec ID : V_MPEG4/ISO/AVC
Duration : 24 min 5s
Bit rate : 5.101 kb/s
Width : 1.920 pikseli
Height : 1.080 pikseli
Display aspect ratio : 16:9
Frame rate mode : Stały
Frame rate : 23,976 (24000/1001) kl/s
Color space : YUV
Chroma subsampling : 4:2:0
Bit depth : 8 bitów
Scan type : Progresywny
Bits/(Pixel*Frame) : 0.103
Stream size : 879 MiB (88%)
Language : Angielski
Default : Tak
Forced : Nie
Color range : Limited
Color primaries : BT.709
Transfer characteristics : BT.709
Matrix coefficients : BT.709

Audio #1
ID : 2
Format : AC-3
Format/Info : Audio Coding 3
Format settings, Endianness : Big
Codec ID : A_AC3
Duration : 24 min 5s
Bit rate mode : Stała
Bit rate : 192 kb/s
Channel(s) : 2 kanały
Channel positions : Front: L R
Sampling rate : 48,0 kHz
Frame rate : 31,250 kl/s (1536 SPF)
Bit depth : 16 bitów
Delay relative to video : -42 ms
Stream size : 33,1 MiB (3%)
Language : Polski
Service kind : Complete Main
Default : Tak
Forced : Nie

Audio #2
ID : 3
Format : AAC
Format/Info : Advanced Audio Codec
Format profile : LC
Codec ID : A_AAC-2
Duration : 24 min 5s
Bit rate : 125 kb/s
Channel(s) : 2 kanały
Channel positions : Front: L R
Sampling rate : 48,0 kHz
Frame rate : 46,875 kl/s (1024 SPF)
Delay relative to video : -42 ms
Stream size : 21,6 MiB (2%)
Language : Angielski
Default : Nie
Forced : Nie

Audio #3
ID : 4
Format : AC-3
Format/Info : Audio Coding 3
Format settings, Endianness : Big
Codec ID : A_AC3
Duration : 24 min 5s
Bit rate mode : Stała
Bit rate : 384 kb/s
Channel(s) : 6 kanałów
Channel positions : Front: L C R, Side: L R, LFE
Sampling rate : 48,0 kHz
Frame rate : 31,250 kl/s (1536 SPF)
Bit depth : 16 bitów
Delay relative to video : -42 ms
Stream size : 66,2 MiB (7%)
Language : Angielski
Service kind : Complete Main
Default : Nie
Forced : Nie

Tekst
ID : 5
Format : UTF-8
Codec ID : S_TEXT/UTF8
Codec ID/Info : UTF-8 Plain Text
Duration : 23 min 37s
Bit rate : 137 b/s
Count of elements : 595
Stream size : 23,9 KiB (0%)
Language : Angielski
Default : Nie
Forced : Nie

Kod:
Tekst widoczny dla zalogowanych.

Kod:
Tekst widoczny dla zalogowanych.
_____
Jeżeli pobrałeś albo spodobał Ci się mój post lub obejrzałeś moje materiały kliknij dziękuję to nic Cię nie kosztuje i za wszystkie bardzo dziękuje!!! :dziękuję:

Obraz
Sygnatura•••
Nie ma w serwisiegucio1304Kopiuj nick
gucio1304

Płeć:
Dołączył:
Punkty: 1886$
Podziękowania: 164
Posty: 239
Dubbing PL / PL
ocenił na: 0
2 - Imprezka z dreszczykiem, Portret wampira :nowe:
Kod:
Tekst widoczny dla zalogowanych.
Nie ma w serwisiegucio1304Kopiuj nick
gucio1304

Płeć:
Dołączył:
Punkty: 1886$
Podziękowania: 164
Posty: 239
Dubbing PL / PL
ocenił na: 0
3 - Przyjęcie niespodzianka, Hit internetu :nowe:
Kod:
Tekst widoczny dla zalogowanych.
Nie ma w serwisiegucio1304Kopiuj nick
gucio1304

Płeć:
Dołączył:
Punkty: 1886$
Podziękowania: 164
Posty: 239
Dubbing PL / PL
ocenił na: 0
4 - Co z tego wyrośnie?, Gdzie jest mumia? :nowe:
Kod:
Tekst widoczny dla zalogowanych.
Jest w serwisieyenxKopiuj nick
yenx

Płeć:
Dołączył:
Punkty: 106761$
Podziękowania: 2231
Posty: 5459
Dubbing PL / PL
ocenił na: 0
Vampirina (2017) S01 multi.720p.hdtv.x264-w4f | Audio: Dubbing PL + Angielski

Ogólne
Unique ID : 224444626722053167356577966812749036843 (0xA8DA767686F7953A8260BACB2C4EFD2B)
Complete name : vampirina.s01e02.multi.720p.hdtv.x264-w4f.mkv
Format : Matroska
Format version : Version 4 / Version 2
File size : 608 MiB
Duration : 23 min 30s
Overall bit rate : 3.616 kb/s
Encoded date : UTC 2017-11-06 22:02:25
Writing application : mkvmerge v17.0.0 ('Be Ur Friend') 64-bit
Writing library : libebml v1.3.5 + libmatroska v1.4.8

Wideo
ID : 1
Format : AVC
Format/Info : Advanced Video Codec
Format profile : High@L4.1
Format settings : CABAC / 9 Ref Frames
Format settings, CABAC : Tak
Format settings, ReFrames : 9 klatek
Codec ID : V_MPEG4/ISO/AVC
Duration : 23 min 30s
Bit rate : 3.038 kb/s
Width : 1.280 pikseli
Height : 720 pikseli
Display aspect ratio : 16:9
Frame rate mode : Stały
Frame rate : 23,976 (24000/1001) kl/s
Color space : YUV
Chroma subsampling : 4:2:0
Bit depth : 8 bitów
Scan type : Progresywny
Bits/(Pixel*Frame) : 0.137
Stream size : 511 MiB (84%)
Writing library : x264 core 152 r2851 ba24899
Encoding settings : cabac=1 / ref=9 / deblock=1:1:1 / analyse=0x3:0x113 / me=hex / subme=8 / psy=1 / psy_rd=0.40:0.00 / mixed_ref=1 / me_range=16 / chroma_me=1 / trellis=2 / 8x8dct=1 / cqm=0 / deadzone=21,11 / fast_pskip=1 / chroma_qp_offset=-2 / threads=12 / lookahead_threads=2 / sliced_threads=0 / nr=0 / decimate=1 / interlaced=0 / bluray_compat=0 / constrained_intra=0 / bframes=5 / b_pyramid=2 / b_adapt=1 / b_bias=0 / direct=3 / weightb=1 / open_gop=0 / weightp=2 / keyint=250 / keyint_min=23 / scenecut=40 / intra_refresh=0 / rc_lookahead=50 / rc=crf / mbtree=1 / crf=18.0 / qcomp=0.60 / qpmin=0 / qpmax=69 / qpstep=4 / ip_ratio=1.40 / aq=1:0.60
Default : Tak
Forced : Nie

Audio #1
ID : 2
Format : AC-3
Format/Info : Audio Coding 3
Format settings, Endianness : Big
Codec ID : A_AC3
Duration : 23 min 30s
Bit rate mode : Stała
Bit rate : 192 kb/s
Channel(s) : 2 kanały
Channel positions : Front: L R
Sampling rate : 48,0 kHz
Frame rate : 31,250 kl/s (1536 SPF)
Bit depth : 16 bitów
Stream size : 32,3 MiB (5%)
Language : Polski
Service kind : Complete Main
Default : Tak
Forced : Nie

Audio #2
ID : 3
Format : AC-3
Format/Info : Audio Coding 3
Format settings, Endianness : Big
Codec ID : A_AC3
Duration : 23 min 30s
Bit rate mode : Stała
Bit rate : 384 kb/s
Channel(s) : 6 kanałów
Channel positions : Front: L C R, Side: L R, LFE
Sampling rate : 48,0 kHz
Frame rate : 31,250 kl/s (1536 SPF)
Bit depth : 16 bitów
Stream size : 64,6 MiB (11%)
Language : Angielski
Service kind : Complete Main
Default : Nie
Forced : Nie

Tekst
ID : 4
Format : UTF-8
Codec ID : S_TEXT/UTF8
Codec ID/Info : UTF-8 Plain Text
Duration : 23 min 26s
Bit rate : 133 b/s
Count of elements : 556
Stream size : 23,0 KiB (0%)
Language : Angielski
Default : Nie
Forced : Nie

Kod:
Tekst widoczny dla zalogowanych.

Kod:
Tekst widoczny dla zalogowanych.
_____
Jeżeli pobrałeś albo spodobał Ci się mój post lub obejrzałeś moje materiały kliknij dziękuję to nic Cię nie kosztuje i za wszystkie bardzo dziękuje!!! :dziękuję:

Obraz
Sygnatura•••
Nie ma w serwisiegucio1304Kopiuj nick
gucio1304

Płeć:
Dołączył:
Punkty: 1886$
Podziękowania: 164
Posty: 239
Dubbing PL / PL
ocenił na: 0
5 - Mały horror, Polowanie na ducha :nowe:
Kod:
Tekst widoczny dla zalogowanych.
Jest w serwisieyenxKopiuj nick
yenx

Płeć:
Dołączył:
Punkty: 106761$
Podziękowania: 2231
Posty: 5459
Dubbing PL / PL
ocenił na: 0
Vampirina (2017) S01 Multi.720p.DSNY.WEB-DL.AAC2.0.x264-TVSmash | Audio: Dubbing PL + Angielski

Ogólne
Unique ID : 179475048657847458505778754730752142330 (0x8705A31594BEB54BAFC9DFE3CB26EBFA)
Complete name : Vampirina.S01E11E12.Vamping.Trip-The.Monster.Snore.Multi.720p.DSNY.WEB-DL.AAC2.0.x264-TVSmash.mkv
Format : Matroska
Format version : Version 4 / Version 2
File size : 623 MiB
Duration : 24 min 1s
Overall bit rate : 3.625 kb/s
Encoded date : UTC 2017-11-12 09:21:42
Writing application : mkvmerge v17.0.0 ('Be Ur Friend') 64-bit
Writing library : libebml v1.3.5 + libmatroska v1.4.8

Wideo
ID : 1
Format : AVC
Format/Info : Advanced Video Codec
Format profile : High@L3.1
Format settings : CABAC / 2 Ref Frames
Format settings, CABAC : Tak
Format settings, ReFrames : 2 klatki
Codec ID : V_MPEG4/ISO/AVC
Duration : 24 min 1s
Bit rate : 3.360 kb/s
Width : 1.280 pikseli
Height : 720 pikseli
Display aspect ratio : 16:9
Frame rate mode : Stały
Frame rate : 23,976 (24000/1001) kl/s
Original frame rate : 24,000 kl/s
Color space : YUV
Chroma subsampling : 4:2:0
Bit depth : 8 bitów
Scan type : Progresywny
Bits/(Pixel*Frame) : 0.152
Stream size : 568 MiB (91%)
Writing library : x264 core 148 r2579M 73ae2d1
Encoding settings : cabac=1 / ref=2 / deblock=1:0:0 / analyse=0x3:0x113 / me=hex / subme=2 / psy=1 / psy_rd=1.00:0.00 / mixed_ref=0 / me_range=16 / chroma_me=1 / trellis=0 / 8x8dct=1 / cqm=0 / deadzone=21,11 / fast_pskip=1 / chroma_qp_offset=0 / threads=4 / lookahead_threads=1 / sliced_threads=0 / nr=250 / decimate=1 / interlaced=0 / bluray_compat=0 / stitchable=1 / constrained_intra=0 / bframes=0 / weightp=1 / keyint=250 / keyint_min=24 / scenecut=40 / intra_refresh=0 / rc_lookahead=10 / rc=2pass / mbtree=1 / bitrate=3360 / ratetol=1.0 / qcomp=0.60 / qpmin=5 / qpmax=69 / qpstep=4 / cplxblur=20.0 / qblur=0.5 / ip_ratio=1.40 / aq=1:1.00
Language : Angielski
Default : Tak
Forced : Nie

Audio #1
ID : 2
Format : AAC
Format/Info : Advanced Audio Codec
Format profile : LC
Codec ID : A_AAC-2
Duration : 24 min 1s
Bit rate : 192 kb/s
Channel(s) : 2 kanały
Channel positions : Front: L R
Sampling rate : 48,0 kHz
Frame rate : 46,875 kl/s (1024 SPF)
Stream size : 33,0 MiB (5%)
Language : Polski
Default : Tak
Forced : Nie

Audio #2
ID : 3
Format : AAC
Format/Info : Advanced Audio Codec
Format profile : HE-AAC / LC
Format settings : Implicit
Codec ID : A_AAC-2
Duration : 24 min 1s
Bit rate : 127 kb/s
Channel(s) : 2 kanały
Channel positions : Front: L R
Sampling rate : 48,0 kHz / 24,0 kHz
Frame rate : 23,438 kl/s (1024 SPF)
Stream size : 21,8 MiB (3%)
Language : Angielski
Default : Nie
Forced : Nie

Tekst
ID : 4
Format : UTF-8
Codec ID : S_TEXT/UTF8
Codec ID/Info : UTF-8 Plain Text
Duration : 23 min 32s
Bit rate : 103 b/s
Count of elements : 582
Stream size : 17,8 KiB (0%)
Language : Angielski
Default : Nie
Forced : Nie

Kod:
Tekst widoczny dla zalogowanych.

Kod:
Tekst widoczny dla zalogowanych.
_____
Jeżeli pobrałeś albo spodobał Ci się mój post lub obejrzałeś moje materiały kliknij dziękuję to nic Cię nie kosztuje i za wszystkie bardzo dziękuje!!! :dziękuję:

Obraz
Sygnatura•••
Nie ma w serwisiegucio1304Kopiuj nick
gucio1304

Płeć:
Dołączył:
Punkty: 1886$
Podziękowania: 164
Posty: 239
Dubbing PL / PL
ocenił na: 0
6 - Kemping z dreszczykiem, Potwór spod łóżka :nowe:
Kod:
Tekst widoczny dla zalogowanych.