Zaloguj
Tru i Tęczowe Królestwo

True and the Rainbow Kingdom
Kreskówka, 2017
10,00  głosy: 1Oceń:
Ulubiony
Do obejrzenia
Obejrzany
Premiera:
11 sierpnia 2017Polska11 sierpnia 2017
Gatunek:
Produkcja:

Dodaj sezon
Jest w serwisieyenxKopiuj nick
yenx

Płeć:
Dołączył:
Punkty: 109677$
Podziękowania: 2370
Posty: 5806
Dubbing PL / PL
ocenił na: 0
Tru i Tęczowe Królestwo / True and the Rainbow Kingdom (2017) S01 768p.NF.WEBRip.x264.aac | Audio: Dubbing PL

Ogólne
Complete name : TITK (1).mp4
Format : MPEG-4
Format profile : Base Media
Codec ID : isom (isom/iso2/avc1/mp41)
File size : 231 MiB
Duration : 22 min 38s
Overall bit rate : 1.426 kb/s
Writing application : Lavf57.56.101

Wideo
ID : 1
Format : AVC
Format/Info : Advanced Video Codec
Format profile : Main@L3.2
Format settings, CABAC : Tak
Format settings, ReFrames : 1 klatka
Codec ID : avc1
Codec ID/Info : Advanced Video Coding
Duration : 22 min 38s
Bit rate : 1.239 kb/s
Width : 1.360 pikseli
Height : 768 pikseli
Display aspect ratio : 16:9
Frame rate mode : Zmienny
Frame rate : 24,472 kl/s
Minimum frame rate : 10,000 kl/s
Maximum frame rate : 30,000 kl/s
Color space : YUV
Chroma subsampling : 4:2:0
Bit depth : 8 bitów
Scan type : Progresywny
Bits/(Pixel*Frame) : 0.048
Stream size : 205 MiB (89%)
Writing library : x264 core 129
Encoding settings : cabac=1 / ref=1 / deblock=1:0:0 / analyse=0x1:0x131 / me=dia / subme=2 / psy=1 / psy_rd=1.00:0.00 / mixed_ref=0 / me_range=16 / chroma_me=1 / trellis=0 / 8x8dct=0 / cqm=0 / deadzone=21,11 / fast_pskip=1 / chroma_qp_offset=0 / threads=4 / lookahead_threads=1 / sliced_threads=0 / nr=0 / decimate=1 / interlaced=0 / bluray_compat=0 / constrained_intra=0 / bframes=0 / weightp=2 / keyint=250 / keyint_min=25 / scenecut=40 / intra_refresh=0 / rc_lookahead=40 / rc=abr / mbtree=1 / bitrate=1239 / ratetol=1.0 / qcomp=0.60 / qpmin=10 / qpmax=51 / qpstep=4 / ip_ratio=1.41 / aq=1:1.00

Audio
ID : 2
Format : AAC
Format/Info : Advanced Audio Codec
Format profile : LC
Codec ID : 40
Duration : 22 min 38s
Duration_FirstFrame : 70 ms
Bit rate mode : Stała
Bit rate : 152 kb/s
Channel(s) : 2 kanały
Channel positions : Front: L R
Sampling rate : 44,1 kHz
Frame rate : 43,066 kl/s (1024 SPF)
Stream size : 24,6 MiB (11%)
Default : Tak
Alternate group : 1

Source: damianradek

Kod:
Tekst widoczny dla zalogowanych.

Kod:
Tekst widoczny dla zalogowanych.
_____
Jeżeli pobrałeś albo spodobał Ci się mój post lub obejrzałeś moje materiały kliknij dziękuję to nic Cię nie kosztuje i za wszystkie bardzo dziękuje!!! :dziękuję:

Obraz
Sygnatura•••
Podziękowania dla autora posta:
rotfly
HEROES

Płeć:
Dołączył:
Punkty: 86424$
Podziękowania: 2511
Posty: 19844
Dubbing PL / PL
ocenił na: 0
Tru i Tęczowe Królestwo / True and the Rainbow Kingdom (2017) {Sezon 1}
PLDUB.1080p.NF.WEB-DL.x264-J / Dubbing PL


Release : True.and.the.Rainbow.Kingdom.2017.PLDUB.S01E01.108 0p.NF.WEB-DL.x264-J
Format : Matroska at 5.163 kb/s
Length : 873 MiB for 23 min 38s 167 ms
Video #0 : AVC at 5.110 kb/s
Aspect : 1920 x 1080 (1.778) at 23.976 fps
Audio #0 : AC-3 at 192 kb/s
Infos : 2 kanały, 48,0 kHz
Language : pl
Wielkość Uploadu.....: 8,03 GB (Całość)


Kod:
Tekst widoczny dla zalogowanych.


Kod:
Tekst widoczny dla zalogowanych.


Kod:
Tekst widoczny dla zalogowanych.


Kod:
Tekst widoczny dla zalogowanych.


Kod:
Tekst widoczny dla zalogowanych.
_____
Obraz
Sygnatura•••
Podziękowania dla autora posta:
rotfly
tadeusza

Płeć:
Dołączył:
Punkty: 126765$
Podziękowania: 433
Posty: 9773
Dubbing PL / PL
ocenił na: 0
Tru i Tęczowe Królestwo / True and the Rainbow Kingdom (2017) {Sezon 1}
PLDUB.1080p.NF.WEB-DL.x264-J / Dubbing PL

Format...............: Matroska at 5.163 kb/s
Length...............: 873 MiB for 23 min 38s 167 ms
Video #0.............: AVC at 5.110 kb/s
Aspect...............: 1920 x 1080 (1.778) at 23.976 fps
Audio #0.............: AC-3 at 192 kb/s
Infos................: 2 kanały, 48,0 kHz
Language.............: pl


Kod:
Tekst widoczny dla zalogowanych.


Kod:
Tekst widoczny dla zalogowanych.
_____
www.2.bp.blogspot.com/-CEmYgPzHvrI/UeVL ... /sign3.png Jest miło,kiedy ktoś podziękuje!
Sygnatura•••