Zaloguj
Steven Universe

Akcja Animowany Familijny Fantasy Komedia Sci-fi
Kreskówka, 2013
8,70  głosy: 10Oceń:
Ulubiony
Do obejrzenia
Obejrzany
Premiera:
16 sierpnia 2014Polska27 lipca 2013
Produkcja:

Dodaj sezon
Nie ma w serwisieBastardowskyKopiuj nick
12,9%
Bastardowsky

Płeć:
Dołączył:
Punkty: 47$
Podziękowania: 156
Posty: 129
Dubbing PL / PL
ocenił na: 0
Steven.Universe.S02E25.1080p.WEBDL.PLDUBB.AVC-SonicDash
[Odpowiedź]

Dane techniczne :
Spoiler
General
Complete name : E:\megacwel\Steven.Universe.S02E25.1080p.WEBDL.PLDUBB.AVC-SonicDash.mp4
Format : MPEG-4
Format profile : Base Media
Codec ID : isom (isom/iso2/avc1/mp41)
File size : 297 MiB
Duration : 11mn 11s
Overall bit rate : 3 709 Kbps
Writing application : Lavf56.25.101

Video
ID : 1
Format : AVC
Format/Info : Advanced Video Codec
Format profile : Baseline@L4
Format settings, CABAC : No
Format settings, ReFrames : 1 frame
Codec ID : avc1
Codec ID/Info : Advanced Video Coding
Duration : 11mn 11s
Bit rate : 3 385 Kbps
Width : 1 914 pixels
Height : 1 078 pixels
Display aspect ratio : 16:9
Original display aspect rat : 16:9
Frame rate mode : Variable
Frame rate : 23.976 (23976/1000) fps
Minimum frame rate : 11.991 fps
Maximum frame rate : 23.981 fps
Original frame rate : 23.976 (24000/1001) fps
Color space : YUV
Chroma subsampling : 4:2:0
Bit depth : 8 bits
Scan type : Progressive
Bits/(Pixel*Frame) : 0.068
Stream size : 271 MiB (91%)
Writing library : x264 core 142 r2479 dd79a61
Encoding settings : cabac=0 / ref=1 / deblock=0:0:0 / analyse=0:0 / me=dia / subme=0 / psy=1 / psy_rd=1.00:0.00 / mixed_ref=0 / me_range=16 / chroma_me=1 / trellis=0 / 8x8dct=0 / cqm=0 / deadzone=21,11 / fast_pskip=1 / chroma_qp_offset=0 / threads=6 / lookahead_threads=1 / sliced_threads=0 / nr=0 / decimate=1 / interlaced=0 / bluray_compat=0 / constrained_intra=0 / bframes=0 / weightp=0 / keyint=240 / keyint_min=24 / scenecut=0 / intra_refresh=0 / rc_lookahead=0 / rc=crf / mbtree=0 / crf=23.0 / qcomp=0.60 / qpmin=0 / qpmax=69 / qpstep=4 / vbv_maxrate=20000 / vbv_bufsize=25000 / crf_max=0.0 / nal_hrd=none / filler=0 / ip_ratio=1.40 / aq=0
Color range : Limited
Color primaries : BT.709
Transfer characteristics : BT.709
Matrix coefficients : BT.709

Audio
ID : 2
Format : MPEG Audio
Format version : Version 1
Format profile : Layer 3
Mode : Joint stereo
Codec ID : 6B
Duration : 11mn 11s
Bit rate mode : Constant
Bit rate : 320 Kbps
Channel(s) : 2 channels
Sampling rate : 48.0 KHz
Compression mode : Lossy
Stream size : 25.6 MiB (9%)
Writing library : LAME3.99.5w†EE$QDŹ
Language : Polish
Default : Yes
Alternate group : 1

Kod:
Tekst widoczny dla zalogowanych.

Steven.Universe.S02E26.1080p.WEBDL.PLDUBB.AVC-SonicDash
[Urodziny Stevena]

Dane techniczne :
Spoiler
General
Complete name : E:\megacwel\Steven.Universe.S02E26.1080p.WEBDL.PLDUBB.AVC-SonicDash.mp4
Format : MPEG-4
Format profile : Base Media
Codec ID : isom (isom/iso2/avc1/mp41)
File size : 262 MiB
Duration : 11mn 25s
Overall bit rate : 3 203 Kbps
Writing application : Lavf56.25.101

Video
ID : 1
Format : AVC
Format/Info : Advanced Video Codec
Format profile : Baseline@L4
Format settings, CABAC : No
Format settings, ReFrames : 1 frame
Codec ID : avc1
Codec ID/Info : Advanced Video Coding
Duration : 11mn 25s
Bit rate : 2 882 Kbps
Width : 1 914 pixels
Height : 1 078 pixels
Display aspect ratio : 16:9
Original display aspect rat : 16:9
Frame rate mode : Variable
Frame rate : 23.976 (23976/1000) fps
Minimum frame rate : 11.991 fps
Maximum frame rate : 23.981 fps
Original frame rate : 23.976 (24000/1001) fps
Color space : YUV
Chroma subsampling : 4:2:0
Bit depth : 8 bits
Scan type : Progressive
Bits/(Pixel*Frame) : 0.058
Stream size : 235 MiB (90%)
Writing library : x264 core 142 r2479 dd79a61
Encoding settings : cabac=0 / ref=1 / deblock=0:0:0 / analyse=0:0 / me=dia / subme=0 / psy=1 / psy_rd=1.00:0.00 / mixed_ref=0 / me_range=16 / chroma_me=1 / trellis=0 / 8x8dct=0 / cqm=0 / deadzone=21,11 / fast_pskip=1 / chroma_qp_offset=0 / threads=6 / lookahead_threads=1 / sliced_threads=0 / nr=0 / decimate=1 / interlaced=0 / bluray_compat=0 / constrained_intra=0 / bframes=0 / weightp=0 / keyint=240 / keyint_min=24 / scenecut=0 / intra_refresh=0 / rc_lookahead=0 / rc=crf / mbtree=0 / crf=23.0 / qcomp=0.60 / qpmin=0 / qpmax=69 / qpstep=4 / vbv_maxrate=20000 / vbv_bufsize=25000 / crf_max=0.0 / nal_hrd=none / filler=0 / ip_ratio=1.40 / aq=0
Color range : Limited
Color primaries : BT.709
Transfer characteristics : BT.709
Matrix coefficients : BT.709

Audio
ID : 2
Format : MPEG Audio
Format version : Version 1
Format profile : Layer 3
Mode : Joint stereo
Mode extension : MS Stereo
Codec ID : 6B
Duration : 11mn 18s
Bit rate mode : Constant
Bit rate : 320 Kbps
Channel(s) : 2 channels
Sampling rate : 48.0 KHz
Compression mode : Lossy
Stream size : 25.9 MiB (10%)
Writing library : LAME3.99.5
Language : Polish
Default : Yes
Alternate group : 1

Kod:
Tekst widoczny dla zalogowanych.
Podziękowania dla autora posta:
Yoman3200, yenx
Nie ma w serwisieBastardowskyKopiuj nick
12,9%
Bastardowsky

Płeć:
Dołączył:
Punkty: 47$
Podziękowania: 156
Posty: 129
Dubbing PL / PL
ocenił na: 0
Steven.Universe.S02E20.1080p.WEBDL.PLDUBB.AVC-SonicDash
[Piosenka Sadie]

Dane techniczne:
Spoiler
General
Complete name : E:\Steven.Universe.S02E20.1080p.WEBDL.PLDUBB.AVC-SonicDash.mp4
Format : MPEG-4
Format profile : Base Media
Codec ID : isom (isom/iso2/avc1/mp41)
File size : 289 MiB
Duration : 11mn 29s
Overall bit rate : 3 516 Kbps
Writing application : Lavf56.25.101

Video
ID : 1
Format : AVC
Format/Info : Advanced Video Codec
Format profile : Baseline@L4
Format settings, CABAC : No
Format settings, ReFrames : 1 frame
Codec ID : avc1
Codec ID/Info : Advanced Video Coding
Duration : 11mn 29s
Bit rate : 3 192 Kbps
Width : 1 914 pixels
Height : 1 078 pixels
Display aspect ratio : 16:9
Original display aspect rat : 16:9
Frame rate mode : Variable
Frame rate : 23.976 (23976/1000) fps
Minimum frame rate : 11.991 fps
Maximum frame rate : 23.981 fps
Original frame rate : 23.976 (24000/1001) fps
Color space : YUV
Chroma subsampling : 4:2:0
Bit depth : 8 bits
Scan type : Progressive
Bits/(Pixel*Frame) : 0.065
Stream size : 262 MiB (91%)
Writing library : x264 core 142 r2479 dd79a61
Encoding settings : cabac=0 / ref=1 / deblock=0:0:0 / analyse=0:0 / me=dia / subme=0 / psy=1 / psy_rd=1.00:0.00 / mixed_ref=0 / me_range=16 / chroma_me=1 / trellis=0 / 8x8dct=0 / cqm=0 / deadzone=21,11 / fast_pskip=1 / chroma_qp_offset=0 / threads=6 / lookahead_threads=1 / sliced_threads=0 / nr=0 / decimate=1 / interlaced=0 / bluray_compat=0 / constrained_intra=0 / bframes=0 / weightp=0 / keyint=240 / keyint_min=24 / scenecut=0 / intra_refresh=0 / rc_lookahead=0 / rc=crf / mbtree=0 / crf=23.0 / qcomp=0.60 / qpmin=0 / qpmax=69 / qpstep=4 / vbv_maxrate=20000 / vbv_bufsize=25000 / crf_max=0.0 / nal_hrd=none / filler=0 / ip_ratio=1.40 / aq=0
Color range : Limited
Color primaries : BT.709
Transfer characteristics : BT.709
Matrix coefficients : BT.709

Audio
ID : 2
Format : MPEG Audio
Format version : Version 1
Format profile : Layer 3
Mode : Joint stereo
Mode extension : MS Stereo
Codec ID : 6B
Duration : 11mn 29s
Bit rate mode : Constant
Bit rate : 320 Kbps
Channel(s) : 2 channels
Sampling rate : 48.0 KHz
Compression mode : Lossy
Stream size : 26.3 MiB (9%)
Writing library : LAME3.99.5ŞŞŞŞŞŞŞŞŞŞ
Default : Yes
Alternate group : 1

Kod:
Tekst widoczny dla zalogowanych.

Kod:
Tekst widoczny dla zalogowanych.

Steven.Universe.S02E27.1080p.WEBDL.PLDUBB.AVC-SonicDash
[A mogło być tak pięknie]

Dane techniczne:
Spoiler
General
Complete name : X:\steven\Steven.Universe.S02E27.1080p.WEBDL.PLDUBB.AVC-SonicDash.mp4
Format : MPEG-4
Format profile : Base Media
Codec ID : isom (isom/iso2/avc1/mp41)
File size : 352 MiB
Duration : 11mn 12s
Overall bit rate : 4 388 Kbps
Writing application : Lavf56.25.101

Video
ID : 1
Format : AVC
Format/Info : Advanced Video Codec
Format profile : Baseline@L4
Format settings, CABAC : No
Format settings, ReFrames : 1 frame
Codec ID : avc1
Codec ID/Info : Advanced Video Coding
Duration : 11mn 11s
Bit rate : 4 064 Kbps
Width : 1 914 pixels
Height : 1 078 pixels
Display aspect ratio : 16:9
Original display aspect rat : 16:9
Frame rate mode : Variable
Frame rate : 23.976 (23976/1000) fps
Minimum frame rate : 11.991 fps
Maximum frame rate : 23.981 fps
Original frame rate : 23.976 (24000/1001) fps
Color space : YUV
Chroma subsampling : 4:2:0
Bit depth : 8 bits
Scan type : Progressive
Bits/(Pixel*Frame) : 0.082
Stream size : 326 MiB (93%)
Writing library : x264 core 142 r2479 dd79a61
Encoding settings : cabac=0 / ref=1 / deblock=0:0:0 / analyse=0:0 / me=dia / subme=0 / psy=1 / psy_rd=1.00:0.00 / mixed_ref=0 / me_range=16 / chroma_me=1 / trellis=0 / 8x8dct=0 / cqm=0 / deadzone=21,11 / fast_pskip=1 / chroma_qp_offset=0 / threads=6 / lookahead_threads=1 / sliced_threads=0 / nr=0 / decimate=1 / interlaced=0 / bluray_compat=0 / constrained_intra=0 / bframes=0 / weightp=0 / keyint=240 / keyint_min=24 / scenecut=0 / intra_refresh=0 / rc_lookahead=0 / rc=crf / mbtree=0 / crf=23.0 / qcomp=0.60 / qpmin=0 / qpmax=69 / qpstep=4 / vbv_maxrate=20000 / vbv_bufsize=25000 / crf_max=0.0 / nal_hrd=none / filler=0 / ip_ratio=1.40 / aq=0
Color range : Limited
Color primaries : BT.709
Transfer characteristics : BT.709
Matrix coefficients : BT.709

Audio
ID : 2
Format : MPEG Audio
Format version : Version 1
Format profile : Layer 3
Mode : Joint stereo
Codec ID : 6B
Duration : 11mn 12s
Bit rate mode : Constant
Bit rate : 320 Kbps
Channel(s) : 2 channels
Sampling rate : 48.0 KHz
Compression mode : Lossy
Stream size : 25.6 MiB (7%)
Writing library : LAME3.99.5
Language : Polish
Default : Yes
Alternate group : 1

Kod:
Tekst widoczny dla zalogowanych.
Podziękowania dla autora posta:
Yoman3200, yenx
Nie ma w serwisieBastardowskyKopiuj nick
12,9%
Bastardowsky

Płeć:
Dołączył:
Punkty: 47$
Podziękowania: 156
Posty: 129
Dubbing PL / PL
ocenił na: 0
Steven.Universe.S02E24.1080p.WEBDL.PLDUBB.AVC-SonicDash
[Za daleko]

Dane techniczne :
Spoiler
General
Complete name : E:\supermegakutwo\Steven.Universe.S02E24.1080p.WEBDL.PLDUBB.AVC-SonicDash.mp4
Format : MPEG-4
Format profile : Base Media
Codec ID : isom
File size : 260 MiB
Duration : 11mn 27s
Overall bit rate : 3 172 Kbps
Writing application : Lavf56.25.101

Video
ID : 1
Format : AVC
Format/Info : Advanced Video Codec
Format profile : Baseline@L4.0
Format settings, CABAC : No
Format settings, ReFrames : 1 frame
Codec ID : avc1
Codec ID/Info : Advanced Video Coding
Duration : 11mn 27s
Bit rate mode : Variable
Bit rate : 2 848 Kbps
Width : 1 914 pixels
Height : 1 078 pixels
Display aspect ratio : 16:9
Original display aspect ratio : 16:9
Frame rate mode : Variable
Frame rate : 23.976 fps
Minimum frame rate : 11.991 fps
Maximum frame rate : 23.981 fps
Color space : YUV
Chroma subsampling : 4:2:0
Bit depth : 8 bits
Scan type : Progressive
Bits/(Pixel*Frame) : 0.058
Stream size : 234 MiB (90%)
Writing library : x264 core 142 r2479 dd79a61
Encoding settings : cabac=0 / ref=1 / deblock=0:0:0 / analyse=0:0 / me=dia / subme=0 / psy=1 / psy_rd=1.00:0.00 / mixed_ref=0 / me_range=16 / chroma_me=1 / trellis=0 / 8x8dct=0 / cqm=0 / deadzone=21,11 / fast_pskip=1 / chroma_qp_offset=0 / threads=6 / lookahead_threads=1 / sliced_threads=0 / nr=0 / decimate=1 / interlaced=0 / bluray_compat=0 / constrained_intra=0 / bframes=0 / weightp=0 / keyint=240 / keyint_min=24 / scenecut=0 / intra_refresh=0 / rc_lookahead=0 / rc=crf / mbtree=0 / crf=23.0 / qcomp=0.60 / qpmin=0 / qpmax=69 / qpstep=4 / vbv_maxrate=20000 / vbv_bufsize=25000 / crf_max=0.0 / nal_hrd=none / filler=0 / ip_ratio=1.40 / aq=0
Color primaries : BT.709-5, BT.1361, IEC 61966-2-4, SMPTE RP177
Transfer characteristics : BT.709-5, BT.1361
Matrix coefficients : BT.709-5, BT.1361, IEC 61966-2-4 709, SMPTE RP177

Audio
ID : 2
Format : MPEG Audio
Format version : Version 1
Format profile : Layer 3
Mode : Joint stereo
Mode extension : MS Stereo
Codec ID : 6B
Duration : 11mn 27s
Bit rate mode : Constant
Bit rate : 320 Kbps
Channel(s) : 2 channels
Sampling rate : 48.0 KHz
Compression mode : Lossy
Stream size : 26.2 MiB (10%)
Writing library : LAME3.99.5
Language : Polish

Kod:
Tekst widoczny dla zalogowanych.

Steven.Universe.S02E28.1080p.WEBDL.PLDUBB.AVC-SonicDash
[Wiadomość odebrana]

Dane techniczne :
Spoiler
General
Complete name : E:\supermegakutwo\Steven.Universe.S02E28.1080p.WEBDL.PLDUBB.AVC-SonicDash.mp4
Format : MPEG-4
Format profile : Base Media
Codec ID : isom
File size : 262 MiB
Duration : 11mn 27s
Overall bit rate : 3 198 Kbps
Writing application : Lavf56.25.101

Video
ID : 1
Format : AVC
Format/Info : Advanced Video Codec
Format profile : Baseline@L4.0
Format settings, CABAC : No
Format settings, ReFrames : 1 frame
Codec ID : avc1
Codec ID/Info : Advanced Video Coding
Duration : 11mn 27s
Bit rate mode : Variable
Bit rate : 2 874 Kbps
Width : 1 914 pixels
Height : 1 078 pixels
Display aspect ratio : 16:9
Original display aspect ratio : 16:9
Frame rate mode : Variable
Frame rate : 23.976 fps
Minimum frame rate : 11.991 fps
Maximum frame rate : 23.981 fps
Color space : YUV
Chroma subsampling : 4:2:0
Bit depth : 8 bits
Scan type : Progressive
Bits/(Pixel*Frame) : 0.058
Stream size : 235 MiB (90%)
Writing library : x264 core 142 r2479 dd79a61
Encoding settings : cabac=0 / ref=1 / deblock=0:0:0 / analyse=0:0 / me=dia / subme=0 / psy=1 / psy_rd=1.00:0.00 / mixed_ref=0 / me_range=16 / chroma_me=1 / trellis=0 / 8x8dct=0 / cqm=0 / deadzone=21,11 / fast_pskip=1 / chroma_qp_offset=0 / threads=6 / lookahead_threads=1 / sliced_threads=0 / nr=0 / decimate=1 / interlaced=0 / bluray_compat=0 / constrained_intra=0 / bframes=0 / weightp=0 / keyint=240 / keyint_min=24 / scenecut=0 / intra_refresh=0 / rc_lookahead=0 / rc=crf / mbtree=0 / crf=23.0 / qcomp=0.60 / qpmin=0 / qpmax=69 / qpstep=4 / vbv_maxrate=20000 / vbv_bufsize=25000 / crf_max=0.0 / nal_hrd=none / filler=0 / ip_ratio=1.40 / aq=0
Color primaries : BT.709-5, BT.1361, IEC 61966-2-4, SMPTE RP177
Transfer characteristics : BT.709-5, BT.1361
Matrix coefficients : BT.709-5, BT.1361, IEC 61966-2-4 709, SMPTE RP177

Audio
ID : 2
Format : MPEG Audio
Format version : Version 1
Format profile : Layer 3
Mode : Joint stereo
Mode extension : MS Stereo
Codec ID : 6B
Duration : 11mn 27s
Bit rate mode : Constant
Bit rate : 320 Kbps
Channel(s) : 2 channels
Sampling rate : 48.0 KHz
Compression mode : Lossy
Stream size : 26.2 MiB (10%)
Writing library : LAME3.99.5
Language : Polish

Kod:
Tekst widoczny dla zalogowanych.

Spoiler
Widzę, że coś kompletnie się wali ta numeracja. Są numeracje wg. nadawania w U.S., w Polsce, Itunes'a, DVD etc. Jak co korzystam z numeracji którą mam na enkodach od Itoonz'a.
Link do listy : Link
Podziękowania dla autora posta:
Yoman3200, yenx
Nie ma w serwisieBastardowskyKopiuj nick
12,9%
Bastardowsky

Płeć:
Dołączył:
Punkty: 47$
Podziękowania: 156
Posty: 129
Dubbing PL / PL
ocenił na: 0
Steven.Universe.S02E04.1080p.WEBDL.PLDUBB.AVC-SonicDash
[Zawołaj Wujcia]

Spoiler
General
Unique ID : 196382893472887964948628625936211619746 (0x93BDF831D6CF727CB6924949604DAFA2)
Complete name : E:\supermegaczycos\SU.S2E4.PLDUBB.1080P-SD.mkv
Format : Matroska
Format version : Version 4 / Version 2
File size : 456 MiB
Duration : 11 min 37 s
Overall bit rate : 5 485 kb/s
Encoded date : UTC 2017-01-06 10:24:57
Writing application : mkvmerge v9.4.0 ('Knurl') 64bit
Writing library : libebml v1.3.4 + libmatroska v1.4.5

Video
ID : 1
Format : AVC
Format/Info : Advanced Video Codec
Format profile : High@L4
Format settings, CABAC : Yes
Format settings, ReFrames : 4 frames
Codec ID : V_MPEG4/ISO/AVC
Duration : 11 min 37 s
Bit rate : 5 010 kb/s
Width : 1 920 pixels
Height : 1 080 pixels
Display aspect ratio : 16:9
Frame rate mode : Constant
Frame rate : 23.976 (23976/1000) FPS
Color space : YUV
Chroma subsampling : 4:2:0
Bit depth : 8 bits
Scan type : Progressive
Bits/(Pixel*Frame) : 0.101
Stream size : 416 MiB (91%)
Language : English
Default : Yes
Forced : No
Color range : Limited
Color primaries : BT.709
Transfer characteristics : BT.709
Matrix coefficients : BT.709

Audio #1
ID : 2
Format : MPEG Audio
Format version : Version 1
Format profile : Layer 3
Mode : Joint stereo
Mode extension : MS Stereo
Codec ID : A_MPEG/L3
Codec ID/Hint : MP3
Duration : 11 min 37 s
Bit rate mode : Constant
Bit rate : 320 kb/s
Channel(s) : 2 channels
Sampling rate : 48.0 kHz
Frame rate : 41.667 FPS (1152 spf)
Compression mode : Lossy
Delay relative to video : 20 ms
Stream size : 26.6 MiB (6%)
Writing library : LAME3.99.5
Language : Polish
Default : No
Forced : No

Audio #2
ID : 3
Format : AAC
Format/Info : Advanced Audio Codec
Format profile : LC
Codec ID : A_AAC
Duration : 11 min 37 s
Bit rate : 153 kb/s
Channel(s) : 2 channels
Channel positions : Front: L R
Sampling rate : 48.0 kHz
Frame rate : 46.875 FPS (1024 spf)
Compression mode : Lossy
Stream size : 12.7 MiB (3%)
Language : English
Default : Yes
Forced : No



Kod:
Tekst widoczny dla zalogowanych.
Podziękowania dla autora posta:
Yoman3200, Qamok, yenx
Nie ma w serwisieBastardowskyKopiuj nick
12,9%
Bastardowsky

Płeć:
Dołączył:
Punkty: 47$
Podziękowania: 156
Posty: 129
Dubbing PL / PL
ocenił na: 0
Kod:
Tekst widoczny dla zalogowanych.

Steven.Universe.S02.1080p.WEBDL.PLDUBB.AVC-SD
Kod:
Tekst widoczny dla zalogowanych.

Kod:
Tekst widoczny dla zalogowanych.
Podziękowania dla autora posta:
yenx
Nie ma w serwisieBastardowskyKopiuj nick
12,9%
Bastardowsky

Płeć:
Dołączył:
Punkty: 47$
Podziękowania: 156
Posty: 129
Dubbing PL / PL
ocenił na: 0
Steven.Universe.S02.1080p.WEB-DL.AAC2.0.H.264-sd_correctedbybastardowsky
Kod:
Tekst widoczny dla zalogowanych.
Podziękowania dla autora posta:
yenx