Zaloguj
Przyciąganie

Attraction
Film, 2017
0,00  głosy: 0Oceń:
Ulubiony
Do obejrzenia
Obejrzany
Premiera:
26 stycznia 2017
Gatunek:
Produkcja:
HEROES

Płeć:
Dołączył:
Punkty: 80431$
Podziękowania: 2201
Posty: 18379
Napisy PL
ocenił na: 0
Przyciąganie / Attraction / Prityazhenie (2017) PLSUBBED.LQ.WEB-DL.XViD-MX / Napisy PL

Format : AVI at 737 Kb/s
Length : 700 MB for 2h 12 min. 40s 795ms

Video #0 : MPEG-4 Visual at 616 Kb/s
Aspect : 608 x 256 (2.375) at 23.976 fps

Audio #0 : MPEG Audio at 112 Kb/s
Infos : 2 kanały, 44,1 KHz
NAPISY PL WTOPIONE


Kod:
Tekst widoczny dla zalogowanych.


Kod:
Tekst widoczny dla zalogowanych.


Kod:
Tekst widoczny dla zalogowanych.


Kod:
Tekst widoczny dla zalogowanych.


Kod:
Tekst widoczny dla zalogowanych.
_____
Obraz
Sygnatura•••
Nie ma w serwisiemaniek8902Kopiuj nick
maniek8902

Płeć:
Dołączył:
Punkty: 0$
Podziękowania: 19
Posty: 561
Lektor PL
ocenił na: 0
Przyciąganie / Attraction / Prityazhenie (2017) BRRip XviD Lektor PL IVO



Kod:
Tekst widoczny dla zalogowanych.



Kod:
Tekst widoczny dla zalogowanych.
_____
Obraz
Sygnatura•••
HEROES

Płeć:
Dołączył:
Punkty: 80431$
Podziękowania: 2201
Posty: 18379
Napisy PL
ocenił na: 0
Przyciąganie / Attraction / Prityazhenie (2017)
SUBPL.RUSSIAN.720p.BluRay.x264.DTS-FGT / Napisy PL


Release : Attraction.2017.RUSSIAN.720p.BluRay.x264.DTS-FGT
Format : Matroska at 8.068 kb/s
Length : 7,47 GB for 2 h 12 min 31s 834 ms
Video #0 : AVC at 6.555 kb/s
Aspect : 1280 x 536 (2.388) at 24.000 fps
Audio #0 : DTS at 1.510 kb/s
Infos : 6 kanałów, 48,0 kHz
Language : ru
Text #0 : UTF-8
Language : pl
Wersja Językowa......: Rosyjska / wmuksowane napisy PL + osobno w paczce napisy PL (napisy od alE13 wiec szału nie ma)


Kod:
Tekst widoczny dla zalogowanych.


Kod:
Tekst widoczny dla zalogowanych.


Kod:
Tekst widoczny dla zalogowanych.


Kod:
Tekst widoczny dla zalogowanych.
_____
Obraz
Sygnatura•••
HEROES

Płeć:
Dołączył:
Punkty: 80431$
Podziękowania: 2201
Posty: 18379
Napisy PL
ocenił na: 0
Przyciąganie 3D / Attraction (2017) PLSUBBED.1080p.3D.Half.Over-Under.Dual.Audio.AC3.BluRay.x264-SONDA |NAPiSY PL

Format : Matroska
Format version : Version 2
File size : 13.3 GiB
Duration : 2 h 12 min
Overall bit rate : 14.3 Mb/s
Movie name : Attraction.3D.2017.HOU.BDRip.1080p.Sonda
Encoded date : UTC 2017-09-17 11:40:16
Writing application : mkvmerge v5.7.0 ('The Whirlwind') built on Jul 8 2012 20:08:51
Writing library : libebml v1.2.3 + libmatroska v1.3.0

Video
ID : 1
Format : AVC
Format/Info : Advanced Video Codec
Format profile : High@L4.1
Format settings, CABAC : Yes
Format settings, ReFrames : 4 frames
Codec ID : V_MPEG4/ISO/AVC
Duration : 2 h 12 min
Bit rate : 13.0 Mb/s
Width : 1 920 pixels
Height : 1 080 pixels
Display aspect ratio : 16:9 (2.39:1)
Frame rate mode : Constant
Frame rate : 23.976 (24000/1001) FPS
Color space : YUV
Chroma subsampling : 4:2:0
Bit depth : 8 bits
Scan type : Progressive
Bits/(Pixel*Frame) : 0.261
Stream size : 11.8 GiB (89%)
Title : Rip by Sonda
Writing library : x264 core 148 r2638 7599210
Encoding settings : cabac=1 / ref=4 / deblock=1:-1:-1 / rc=2pass
Default : Yes
Forced : No

Audio #1
ID : 2
Format : AC-3
Format/Info : Audio Coding 3
Format settings, Endianness : Big
Codec ID : A_AC3
Duration : 2 h 12 min
Bit rate mode : Constant
Bit rate : 640 kb/s
Channel(s) : 6 channels
Channel positions : Front: L C R, Side: L R, LFE
Sampling rate : 48.0 kHz
Frame rate : 31.250 FPS (1536 spf)
Bit depth : 16 bits
Compression mode : Lossy
Stream size : 609 MiB (4%)
Title : AC3 5.1 GER
Language : German
Service kind : Complete Main
Default : Yes
Forced : Yes

Audio #2
ID : 3
Format : AC-3
Format/Info : Audio Coding 3
Format settings, Endianness : Big
Codec ID : A_AC3
Duration : 2 h 12 min
Bit rate mode : Constant
Bit rate : 640 kb/s
Channel(s) : 6 channels
Channel positions : Front: L C R, Side: L R, LFE
Sampling rate : 48.0 kHz
Frame rate : 31.250 FPS (1536 spf)
Bit depth : 16 bits
Compression mode : Lossy
Stream size : 609 MiB (4%)
Title : AC3 5.1 RUS
Language : Russian
Service kind : Complete Main
Default : No
Forced : No

Source:
A/V- BD3D GER
Thanks - Sonda


Kod:
Tekst widoczny dla zalogowanych.


Kod:
Tekst widoczny dla zalogowanych.


Kod:
Tekst widoczny dla zalogowanych.


Kod:
Tekst widoczny dla zalogowanych.


Kod:
Tekst widoczny dla zalogowanych.
_____
Obraz
Sygnatura•••