Zaloguj
Pingwiny z Madagaskaru

The Penguins of the Madagascar
Kreskówka, 2008
9,75  głosy: 99Oceń:
Ulubiony
Do obejrzenia
Obejrzany
Ocena Filmweb8,1/10
Premiera:
24 października 2009Polska28 listopada 2008
Produkcja:

Dodaj sezon
Jest w serwisieyenxKopiuj nick
yenx

Płeć:
Dołączył:
Punkty: 117830$
Podziękowania: 2478
Posty: 6718
Dubbing PL / PL
ocenił na: 0
Pingwiny z Madagaskaru / The Penguins of Madagascar (2008-2015) PL.DUB.720p.HDTV.X264.AC3-TVM4iN / DUBBING PL *SEZON 3*

~# DANE TECHNiCZNE / RELEASE .iNFO #~

Dane techniczne przykładowego odcinka:
Rozmiar pliku: 699.8 MiB , Czas trwania: 00:21:45 , Ogólne bitrate pliku: 4 495 Kbps , Format: Matroska , Video FPS: 25.000 , Video bitrate: 4 300 Kbps , Video rozdzielczość: 1280x720 , Video rozmiar: 656 MiB (94%) , Video proporcje obrazu: 16:9 , Audio format: AC-3 , Audio format wynik: Audio Coding 3 , Audio bitrate: 192 Kbps , Audio liczba kanałów: 2 , Audio sampling rate: 48.0 KHz , Audio resolution: 16 bits , Audio rozmiar: 29.9 MiB (4%)


~# ZDJĘCiA / SCREENS #~



~# POBiERZ / DOWNLOAD #~

Obraz
Kod:
Tekst widoczny dla zalogowanych.

Obraz
Kod:
Tekst widoczny dla zalogowanych.

Obraz
Kod:
Tekst widoczny dla zalogowanych.
_____
Jeżeli pobrałeś albo spodobał Ci się mój post lub obejrzałeś moje materiały kliknij dziękuję to nic Cię nie kosztuje i za wszystkie bardzo dziękuje!!! :dziękuję:

Obraz
Sygnatura•••
Jest w serwisieyenxKopiuj nick
yenx

Płeć:
Dołączył:
Punkty: 117830$
Podziękowania: 2478
Posty: 6718
Dubbing PL / PL
ocenił na: 0
Pingwiny z Madagaskaru / The Penguins of Madagascar {Sezon 3} (2008-2015) PL.720p.HDTV.x264-DDR | Dubbing PL

~# DANE TECHNiCZNE / RELEASE .iNFO #~

Dane techniczne przykładowego odcinka:
Ogólne
Unique ID : 207146022368807173859718491565236842076 (0x9BD6DF6B80291744BF6068393DBA6E5C)
Complete name : The.Penguins.of.Madagascar.S03E66.PL.720p.HDTV.X264.DDR.mkv
Format : Matroska
Format version : Version 2
File size : 699 MiB
Duration : 21 min 48s
Overall bit rate mode : Zmienna
Overall bit rate : 4.483 kb/s
Encoded date : UTC 2012-08-17 17:49:50
Writing application : mkvmerge v4.9.1 ('Ich will') built on Jul 11 2011 23:53:15
Writing library : libebml v1.2.1 + libmatroska v1.1.1

Wideo
ID : 1
Format : AVC
Format/Info : Advanced Video Codec
Format profile : High@L4.1
Format settings : CABAC / 3 Ref Frames
Format settings, CABAC : Tak
Format settings, RefFrames : 3 klatki
Codec ID : V_MPEG4/ISO/AVC
Duration : 21 min 48s
Bit rate mode : Zmienna
Bit rate : 4.292 kb/s
Maximum bit rate : 40,0 Mb/s
Width : 1.280 pikseli
Height : 720 pikseli
Display aspect ratio : 16:9
Frame rate mode : Stały
Frame rate : 25,000 kl/s
Color space : YUV
Chroma subsampling : 4:2:0
Bit depth : 8 bitów
Scan type : Progresywny
Bits/(Pixel*Frame) : 0.186
Stream size : 655 MiB (94%)
Title : TVM4iN
Writing library : x264 core 116 r2074 2641b9e
Encoding settings : cabac=1 / ref=4 / deblock=1:0:0 / analyse=0x3:0x113 / me=hex / subme=7 / psy=1 / psy_rd=1.00:0.00 / mixed_ref=1 / me_range=16 / chroma_me=1 / trellis=1 / 8x8dct=1 / cqm=0 / deadzone=21,11 / fast_pskip=1 / chroma_qp_offset=-2 / threads=6 / sliced_threads=0 / slices=4 / nr=0 / decimate=1 / interlaced=0 / bluray_compat=1 / constrained_intra=0 / bframes=3 / b_pyramid=1 / b_adapt=1 / b_bias=0 / direct=1 / weightb=1 / open_gop=1 / weightp=0 / keyint=60 / keyint_min=6 / scenecut=40 / intra_refresh=0 / rc_lookahead=40 / rc=2pass / mbtree=1 / bitrate=4292 / ratetol=1.0 / qcomp=0.60 / qpmin=0 / qpmax=69 / qpstep=4 / cplxblur=20.0 / qblur=0.5 / vbv_maxrate=40000 / vbv_bufsize=30000 / nal_hrd=vbr / ip_ratio=1.40 / aq=1:1.00
Language : Angielski
Default : Tak
Forced : Nie
Color range : Limited
Color primaries : BT.709
Transfer characteristics : BT.709
Matrix coefficients : BT.709

Audio
ID : 2
Format : AC-3
Format/Info : Audio Coding 3
Codec ID : A_AC3
Duration : 21 min 48s
Bit rate mode : Stała
Bit rate : 192 kb/s
Channel(s) : 2 kanały
Channel positions : Front: L R
Sampling rate : 48,0 kHz
Frame rate : 31,250 kl/s (1536 SPF)
Bit depth : 16 bitów
Stream size : 29,9 MiB (4%)
Title : TVM4iN
Language : Polski
Service kind : Hearing Impaired
Default : Tak
Forced : Nie


~# ZDJĘCiA / SCREENS #~



~# POBiERZ / DOWNLOAD #~

Obraz
Kod:
Tekst widoczny dla zalogowanych.
_____
Jeżeli pobrałeś albo spodobał Ci się mój post lub obejrzałeś moje materiały kliknij dziękuję to nic Cię nie kosztuje i za wszystkie bardzo dziękuje!!! :dziękuję:

Obraz
Sygnatura•••
Podziękowania dla autora posta:
Akatsuki4444
Jest w serwisieyenxKopiuj nick
yenx

Płeć:
Dołączył:
Punkty: 117830$
Podziękowania: 2478
Posty: 6718
Dubbing PL / PL
ocenił na: 0
Pingwiny z Madagaskaru [ SEZON III ] (2013)
PL.720p.HDTV.X264.AC3-TVM4iN(.mkv) / Dubbing PL


~# DANE TECHNiCZNE / RELEASE .iNFO #~

Dane techniczne przykładowego odcinka:
General : The.Penguins.of.Madagascar.S03E01.PL.720p.HDTV.X264.AC3-TVM4iN.mkv
Format : Matroska at 4.498 Kb/s
Length : 699 MB for 21 min. 45s 40ms

Video #0 : AVC at 4.302 Kb/s
Aspect : 1280 x 720 (1.778) at 25.000 fps

Audio #0 : AC-3 at 192 Kb/s
Infos : 2 kanały, 48,0 KHz
Language : pl


Źródło obrazu : HDTV
Źródło tłumaczenia: polski dubbing profesjonalny

Rozmiar: ok. 700 MB / każdy odcinek
Zawartość uploadu: plik .mkv


~# ZDJĘCiA / SCREENS #~



~# POBiERZ / DOWNLOAD #~

Obraz
Kod:
Tekst widoczny dla zalogowanych.

Obraz
Kod:
Tekst widoczny dla zalogowanych.

Obraz
Kod:
Tekst widoczny dla zalogowanych.

Obraz
Kod:
Tekst widoczny dla zalogowanych.
_____
Jeżeli pobrałeś albo spodobał Ci się mój post lub obejrzałeś moje materiały kliknij dziękuję to nic Cię nie kosztuje i za wszystkie bardzo dziękuje!!! :dziękuję:

Obraz
Sygnatura•••