Zaloguj
Niesamowity świat Gumballa

The Amazing World of Gumball
Kreskówka, 2011
8,75  głosy: 20Oceń:
Ulubiony
Do obejrzenia
Obejrzany
Premiera:
8 listopada 2011Polska2 maja 2011
Gatunek:
Produkcja:

Dodaj sezon
Nie ma w serwisieBastardowskyKopiuj nick
13,1%
Bastardowsky

Płeć:
Dołączył:
Punkty: 55$
Podziękowania: 158
Posty: 131
Dubbing PL / PL
ocenił na: 0
Dane Techniczne:
Kod:
Tekst widoczny dla zalogowanych.

Linki [będą aktualizowane]
Kod:
Tekst widoczny dla zalogowanych.

Kod:
Tekst widoczny dla zalogowanych.

Kod:
Tekst widoczny dla zalogowanych.
Podziękowania dla autora posta:
Yoman3200
Nie ma w serwisiekrzy6ioKopiuj nick
8,7%
krzy6io

Płeć:
Dołączył:
Punkty: 321$
Podziękowania: 104
Posty: 87
Ostrzeżenia: 1/3
Dubbing PL / PL
ocenił na: 0
Niesamowity.Świat.Gumballa.S04E01.Powrót.PL.DUB.720p.WEB-DL.x264.AAC-Nemesis

Kod:
Tekst widoczny dla zalogowanych.


Niesamowity.Świat.Gumballa.S04E02.Nemesis.PL.DUB.720p.WEB-DL.x264.AAC-Nemesis

Kod:
Tekst widoczny dla zalogowanych.


Niesamowity.Świat.Gumballa.S04E03.Ekipa.PL.DUB.720p.WEB-DL.x264.AAC-Nemesis

Kod:
Tekst widoczny dla zalogowanych.
_____
Reuploady dozwolone, przy braku zmiany nazwy pliku !
Sygnatura•••
Podziękowania dla autora posta:
Yoman3200
Nie ma w serwisieBastardowskyKopiuj nick
13,1%
Bastardowsky

Płeć:
Dołączył:
Punkty: 55$
Podziękowania: 158
Posty: 131
Dubbing PL / PL
ocenił na: 0
Niesamowity.Świat.Gumballa.S04.PL.DUB.1080p.WEB-DL.AAC.AVC-SonicDash
Dane techniczne przykładowego odcinka:
Spoiler
General
Unique ID : 192656627344430515508746359970216845921 (0x90F05117199E6A4FB71A8F5637A8A261)
Complete name : D:\megaga\TAWOG\TAWOGS4E1_PLDUBB_1080P_SD.mkv
Format : Matroska
Format version : Version 4 / Version 2
File size : 502 MiB
Duration : 11 min 37 s
Overall bit rate : 6 037 kb/s
Encoded date : UTC 2017-02-22 13:48:38
Writing application : mkvmerge v9.7.1 ('Pandemonium') 64bit
Writing library : libebml v1.3.4 + libmatroska v1.4.5

Video
ID : 1
Format : AVC
Format/Info : Advanced Video Codec
Format profile : High@L4
Format settings, CABAC : Yes
Format settings, ReFrames : 4 frames
Codec ID : V_MPEG4/ISO/AVC
Duration : 11 min 37 s
Bit rate : 5 558 kb/s
Width : 1 920 pixels
Height : 1 080 pixels
Display aspect ratio : 16:9
Frame rate mode : Constant
Frame rate : 25.000 FPS
Color space : YUV
Chroma subsampling : 4:2:0
Bit depth : 8 bits
Scan type : Progressive
Bits/(Pixel*Frame) : 0.107
Stream size : 462 MiB (92%)
Language : English
Default : Yes
Forced : No
Color range : Limited
Color primaries : BT.709
Transfer characteristics : BT.709
Matrix coefficients : BT.709

Audio #1
ID : 2
Format : AAC
Format/Info : Advanced Audio Codec
Format profile : LC
Codec ID : A_AAC
Duration : 11 min 37 s
Bit rate : 157 kb/s
Channel(s) : 2 channels
Channel positions : Front: L R
Sampling rate : 48.0 kHz
Frame rate : 46.875 FPS (1024 spf)
Compression mode : Lossy
Stream size : 13.0 MiB (3%)
Language : English
Default : Yes
Forced : No

Audio #2
ID : 3
Format : MPEG Audio
Format version : Version 1
Format profile : Layer 3
Mode : Joint stereo
Codec ID : A_MPEG/L3
Codec ID/Hint : MP3
Duration : 11 min 37 s
Bit rate mode : Constant
Bit rate : 320 kb/s
Channel(s) : 2 channels
Sampling rate : 48.0 kHz
Frame rate : 41.667 FPS (1152 spf)
Compression mode : Lossy
Delay relative to video : -120 ms
Stream size : 26.6 MiB (5%)
Writing library : LAME3.99.5
Language : Polish
Default : No
Forced : No


Kod:
Tekst widoczny dla zalogowanych.
Podziękowania dla autora posta:
Yoman3200