Zaloguj
Niesamowity świat Gumballa

The Amazing World of Gumball
Kreskówka, 2011
8,75  głosy: 20Oceń:
Ulubiony
Do obejrzenia
Obejrzany
Premiera:
8 listopada 2011Polska2 maja 2011
Gatunek:
Produkcja:

Dodaj sezon
Nie ma w serwisieBastardowskyKopiuj nick
13,1%
Bastardowsky

Płeć:
Dołączył:
Punkty: 55$
Podziękowania: 158
Posty: 131
Dubbing PL / PL
ocenił na: 0
Niesamowity.Świat.Gumballa.S03.PL.DUB.1080p.WEB-DL.AAC.AVC-SonicDash
Dane techniczne przykładowego odcinka:
Spoiler
General
Complete name : E:\supermegakutwo\Gumball.S3E1.PLDUBB.SONICDASH.mp4
Format : MPEG-4
Format profile : Base Media
Codec ID : isom (isom/iso2/avc1/mp41)
File size : 898 MiB
Duration : 22mn 18s
Overall bit rate : 5 624 Kbps
Writing application : Lavf56.25.101

Video
ID : 1
Format : AVC
Format/Info : Advanced Video Codec
Format profile : High@L4
Format settings, CABAC : Yes
Format settings, ReFrames : 4 frames
Codec ID : avc1
Codec ID/Info : Advanced Video Coding
Duration : 22mn 18s
Duration_FirstFrame : 40ms
Bit rate : 5 135 Kbps
Width : 1 920 pixels
Height : 1 080 pixels
Display aspect ratio : 16:9
Frame rate mode : Constant
Frame rate : 25.000 fps
Color space : YUV
Chroma subsampling : 4:2:0
Bit depth : 8 bits
Scan type : Progressive
Bits/(Pixel*Frame) : 0.099
Stream size : 820 MiB (91%)
Color range : Limited
Color primaries : BT.709
Transfer characteristics : BT.709
Matrix coefficients : BT.709

Audio #1
ID : 2
Format : MPEG Audio
Format version : Version 1
Format profile : Layer 3
Mode : Joint stereo
Codec ID : 6B
Duration : 22mn 18s
Bit rate mode : Constant
Bit rate : 320 Kbps
Channel(s) : 2 channels
Sampling rate : 44.1 KHz
Compression mode : Lossy
Stream size : 51.1 MiB (6%)
Writing library : LAME3.99.5
Language : Polish
Default : Yes
Alternate group : 1

Audio #2
ID : 3
Format : AAC
Format/Info : Advanced Audio Codec
Format profile : LC
Codec ID : 40
Duration : 22mn 18s
Bit rate mode : Constant
Bit rate : 157 Kbps
Channel(s) : 2 channels
Channel positions : Front: L R
Sampling rate : 48.0 KHz
Frame rate : 46.875 fps (1024 spf)
Compression mode : Lossy
Stream size : 25.0 MiB (3%)
Language : English
Default : No
Alternate group : 1

Kod:
Tekst widoczny dla zalogowanych.

Kod:
Tekst widoczny dla zalogowanych.
Podziękowania dla autora posta:
Yoman3200