Zaloguj
Little Witch Academia

Fantasy Anime Komedia
Anime, 2017
10,00  głosy: 1Oceń:
Ulubiony
Do obejrzenia
Obejrzany
Premiera:
30 czerwca 2017Polska8 stycznia 2017
Gatunek:
Produkcja:

Dodaj sezon
HEROES

Płeć:
Dołączył:
Punkty: 82596$
Podziękowania: 2275
Posty: 18925
Dubbing PL / PL
ocenił na: 0
Little Witch Academia (2017) {Sezon 1} PLDUB.720p.NF.WEBRip.x264-J / Dubbing PL

Release : Little.Witch.Academia.2017.PLDUB.S01E01.720p.NF.WE BRip.x264-J
Format : Matroska at 3.093 kb/s
Length : 557 MiB for 25 min 9s 884 ms
Video #0 : AVC at 3.010 kb/s
Aspect : 1280 x 720 (1.778) at 23.976 fps
Audio #0 : AC-3 at 192 kb/s
Infos : 2 kanały, 48,0 kHz
Language : pl
Wielkość Uploadu.....: 5,16 GB (Całość)


Kod:
Tekst widoczny dla zalogowanych.


Kod:
Tekst widoczny dla zalogowanych.


Kod:
Tekst widoczny dla zalogowanych.


Kod:
Tekst widoczny dla zalogowanych.


Kod:
Tekst widoczny dla zalogowanych.
_____
Obraz
Sygnatura•••
Podziękowania dla autora posta:
yenx
HEROES

Płeć:
Dołączył:
Punkty: 82596$
Podziękowania: 2275
Posty: 18925
Dubbing PL / PL
ocenił na: 0
Little Witch Academia (2017) {Sezon 1} PLDUB.1080p.NF.WEBRip.x264-J / Dubbing PL

Release : Little.Witch.Academia.2017.PLDUB.S01E01.1080p.NF.W EBRip.x264-J
Format : Matroska at 5.366 kb/s
Length : 966 MiB for 25 min 9s 884 ms
Video #0 : AVC at 5.360 kb/s
Aspect : 1920 x 1080 (1.778) at 23.976 fps
Audio #0 : AC-3 at 192 kb/s
Infos : 2 kanały, 48,0 kHz
Language : pl
Wielkość Uploadu: 8,75 GB (Całość)


Kod:
Tekst widoczny dla zalogowanych.


Kod:
Tekst widoczny dla zalogowanych.


Kod:
Tekst widoczny dla zalogowanych.


Kod:
Tekst widoczny dla zalogowanych.


Kod:
Tekst widoczny dla zalogowanych.
_____
Obraz
Sygnatura•••
Podziękowania dla autora posta:
yenx
HEROES

Płeć:
Dołączył:
Punkty: 82596$
Podziękowania: 2275
Posty: 18925
Dubbing PL / PL
ocenił na: 0
Little Witch Academia (2017) {Sezon 1}PLDUB.1080p.NF.WEBRip.x264-J | PLDUB.1080p.NF.WEB-DL.x264-J / Dubbing PL

Release : Little.Witch.Academia.2017.PLDUB.S01E01.1080p.NF.W EBRip.x264-J
Format : Matroska at 5.366 kb/s
Length : 966 MiB for 25 min 9s 884 ms
Video #0 : AVC at 5.360 kb/s
Aspect : 1920 x 1080 (1.778) at 23.976 fps
Audio #0 : AC-3 at 192 kb/s
Infos : 2 kanały, 48,0 kHz
Language : pl
-------------------------
Release : Little.Witch.Academia.2017.PLDUB.S01E14.1080p.NF.W EB-DL.x264-J
Format : Matroska at 2.966 kb/s
Length : 534 MiB for 25 min 9s 884 ms
Video #0 : AVC at 2.870 kb/s
Aspect : 1920 x 1080 (1.778) at 23.976 fps
Audio #0 : AC-3 at 192 kb/s
Infos : 2 kanały, 48,0 kHz
Wielkość Uploadu: 15,77 GB (Całość)


Kod:
Tekst widoczny dla zalogowanych.


Kod:
Tekst widoczny dla zalogowanych.


Kod:
Tekst widoczny dla zalogowanych.


Kod:
Tekst widoczny dla zalogowanych.


Kod:
Tekst widoczny dla zalogowanych.
_____
Obraz
Sygnatura•••
Podziękowania dla autora posta:
Florianek, rotfly
Jest w serwisieyenxKopiuj nick
yenx

Płeć:
Dołączył:
Punkty: 107005$
Podziękowania: 2241
Posty: 5487
Dubbing PL / PL
ocenił na: 0
Little Witch Academia (2017) S01 768p.NF.WEBRip.x264.aac | Audio: Dubbing PL
Sezon 1 oficjalnie (Sezon 2 według Netflix) stąd też taka numeracja


Ogólne
Complete name : LWA (1).mp4
Format : MPEG-4
Format profile : Base Media
Codec ID : isom (isom/iso2/avc1/mp41)
File size : 292 MiB
Duration : 22 min 52s
Overall bit rate : 1.783 kb/s
Writing application : Lavf57.72.101

Wideo
ID : 1
Format : AVC
Format/Info : Advanced Video Codec
Format profile : Main@L3.1
Format settings, CABAC : Tak
Format settings, ReFrames : 1 klatka
Codec ID : avc1
Codec ID/Info : Advanced Video Coding
Duration : 22 min 52s
Bit rate : 1.622 kb/s
Width : 1.276 pikseli
Height : 720 pikseli
Display aspect ratio : 16:9
Original display aspect ratio : 16:9
Frame rate mode : Stały
Frame rate : 30,000 kl/s
Color space : YUV
Chroma subsampling : 4:2:0
Bit depth : 8 bitów
Scan type : Progresywny
Bits/(Pixel*Frame) : 0.059
Stream size : 265 MiB (91%)

Audio
ID : 2
Format : AAC
Format/Info : Advanced Audio Codec
Format profile : LC
Codec ID : 40
Duration : 22 min 52s
Bit rate mode : Stała
Bit rate : 154 kb/s
Channel(s) : 2 kanały
Channel positions : Front: L R
Sampling rate : 44,1 kHz
Frame rate : 43,066 kl/s (1024 SPF)
Stream size : 25,2 MiB (9%)
Default : Tak
Alternate group : 1

Source: damianradek

Kod:
Tekst widoczny dla zalogowanych.

Kod:
Tekst widoczny dla zalogowanych.
_____
Jeżeli pobrałeś albo spodobał Ci się mój post lub obejrzałeś moje materiały kliknij dziękuję to nic Cię nie kosztuje i za wszystkie bardzo dziękuje!!! :dziękuję:

Obraz
Sygnatura•••
Jest w serwisieyenxKopiuj nick
yenx

Płeć:
Dołączył:
Punkty: 107005$
Podziękowania: 2241
Posty: 5487
Dubbing PL / PL
ocenił na: 0
Little Witch Academia (2017) {Sezon 1}
PLDUB.1080p.NF.WEBRip.x264-J | PLDUB.1080p.NF.WEB-DL.x264-J / Dubbing PL


~# DANE TECHNiCZNE / RELEASE .iNFO #~

Release..............: Little.Witch.Academia.2017.PLDUB.S01E01.1080p.NF.WEBRip.x264-J
Format...............: Matroska at 5.366 kb/s
Length...............: 966 MiB for 25 min 9s 884 ms
Video #0.............: AVC at 5.360 kb/s
Aspect...............: 1920 x 1080 (1.778) at 23.976 fps
Audio #0.............: AC-3 at 192 kb/s
Infos................: 2 kanały, 48,0 kHz
Language.............: pl
-------------------------
Release..............: Little.Witch.Academia.2017.PLDUB.S01E14.1080p.NF.WEB-DL.x264-J
Format...............: Matroska at 2.966 kb/s
Length...............: 534 MiB for 25 min 9s 884 ms
Video #0.............: AVC at 2.870 kb/s
Aspect...............: 1920 x 1080 (1.778) at 23.976 fps
Audio #0.............: AC-3 at 192 kb/s
Infos................: 2 kanały, 48,0 kHz


~# ZDJĘCiA / SCREENS #~



~# POBiERZ / DOWNLOAD #~

Obraz
Kod:
Tekst widoczny dla zalogowanych.

Obraz
Kod:
Tekst widoczny dla zalogowanych.

Obraz
Kod:
Tekst widoczny dla zalogowanych.

Obraz
Kod:
Tekst widoczny dla zalogowanych.
_____
Jeżeli pobrałeś albo spodobał Ci się mój post lub obejrzałeś moje materiały kliknij dziękuję to nic Cię nie kosztuje i za wszystkie bardzo dziękuje!!! :dziękuję:

Obraz
Sygnatura•••
Jest w serwisieyenxKopiuj nick
yenx

Płeć:
Dołączył:
Punkty: 107005$
Podziękowania: 2241
Posty: 5487
Dubbing PL / PL
ocenił na: 0
Little Witch Academia (2017)
PL.NF.WEBRip.1080p.x264-zyl / Dubbing PL


~# DANE TECHNiCZNE / RELEASE .iNFO #~

Little Witch Academia.2017.S01E01.1080p.NF.WEBRip.x264.DUB.PL-zyl.mkv
Format : Matroska
File size : 745 MiB
Duration : 25mn 9s
Overall bit rate : 4 141 Kbps

Video
Nominal bit rate : 4 000 Kbps
Width : 1 920 pixels
Height : 1 080 pixels
Display aspect ratio : 16:9
Bit depth : 8 bits
Title : zylasty

Audio
Format : AAC
Channel(s) : 2 channels
Sampling rate : 44.1 KHz
Language : Polish


~# ZDJĘCiA / SCREENS #~



~# POBiERZ / DOWNLOAD #~

Obraz
Kod:
Tekst widoczny dla zalogowanych.
_____
Jeżeli pobrałeś albo spodobał Ci się mój post lub obejrzałeś moje materiały kliknij dziękuję to nic Cię nie kosztuje i za wszystkie bardzo dziękuje!!! :dziękuję:

Obraz
Sygnatura•••