Zaloguj
Little Witch Academia

Fantasy Komedia Anime Przygodowy
Anime, 2013
10,00  głosy: 1Oceń:
Ulubiony
Do obejrzenia
Obejrzany
Premiera:
2 marca 2013
Produkcja:
Jest w serwisieyenxKopiuj nick
yenx

Płeć:
Dołączył:
Punkty: 106841$
Podziękowania: 2234
Posty: 5479
Napisy PL
ocenił na: 0
Little Witch Academia (2013) BD 720p AAC + BD 1080p Hi10p AAC | Napisy PL



Little Witch Academia (2013) BD 720p AAC | Napisy PL + Ang
DANE TECHNICZNE
Ogólne
Unique ID : 198818480753083866302931076944394766537 (0x95930BEB3986416B9A26E0946D6CC8C9)
Complete name : [gg]_Anime_Mirai_2013_-_Little_Witch_Academia_(BD,720p)_[9E6DE408].mkv
Format : Matroska
Format version : Version 4 / Version 2
File size : 504 MiB
Duration : 26 min 12s
Overall bit rate : 2.688 kb/s
Encoded date : UTC 2017-08-19 17:50:48
Writing application : mkvmerge v14.0.0 ('Flow') 64bit
Writing library : libebml v1.3.4 + libmatroska v1.4.5
Attachments : EFN Laten Cnd.ttf / binokle.ttf / meta-medium-roman.ttf / JandaCurlygirlChunky.ttf / binokle_0.ttf / EFN Laten Cnd_0.ttf / binokle_0.ttf / EFN Laten Cnd_0.ttf

Wideo
ID : 1
Format : AVC
Format/Info : Advanced Video Codec
Format profile : High 10@L4
Format settings, CABAC : Tak
Format settings, ReFrames : 9 klatek
Codec ID : V_MPEG4/ISO/AVC
Duration : 26 min 12s
Bit rate : 2.384 kb/s
Width : 1.280 pikseli
Height : 720 pikseli
Display aspect ratio : 16:9
Frame rate mode : Stały
Frame rate : 23,976 (24000/1001) kl/s
Color space : YUV
Chroma subsampling : 4:2:0
Bit depth : 10 bitów
Scan type : Progresywny
Bits/(Pixel*Frame) : 0.108
Stream size : 447 MiB (89%)
Writing library : x264 core 125 r2200+677M 3a754e7
Encoding settings : cabac=1 / ref=9 / deblock=1:-1:-1 / analyse=0x3:0x133 / me=umh / subme=10 / psy=1 / fade_compensate=0.00 / psy_rd=0.60:0.10 / mixed_ref=1 / me_range=24 / chroma_me=1 / trellis=2 / 8x8dct=1 / cqm=0 / deadzone=21,11 / fast_pskip=1 / chroma_qp_offset=-3 / threads=18 / lookahead_threads=3 / sliced_threads=0 / nr=0 / decimate=1 / interlaced=0 / bluray_compat=0 / constrained_intra=0 / fgo=0 / bframes=12 / b_pyramid=2 / b_adapt=2 / b_bias=0 / direct=3 / weightb=1 / open_gop=0 / weightp=2 / keyint=250 / keyint_min=23 / scenecut=40 / intra_refresh=0 / rc_lookahead=60 / rc=crf / mbtree=1 / crf=16.0000 / qcomp=0.60 / qpmin=0 / qpmax=81 / qpstep=4 / ip_ratio=1.40 / aq=3:0.80
Language : Angielski
Default : Tak
Forced : Nie

Audio
ID : 2
Format : AAC
Format/Info : Advanced Audio Codec
Format profile : LC
Codec ID : A_AAC
Duration : 26 min 12s
Bit rate : 299 kb/s
Channel(s) : 2 kanały
Channel positions : Front: L R
Sampling rate : 48,0 kHz
Frame rate : 46,875 kl/s (1024 SPF)
Stream size : 56,0 MiB (11%)
Default : Tak
Forced : Nie

Tekst #1
ID : 3
Format : ASS
Codec ID : S_TEXT/ASS
Codec ID/Info : Advanced Sub Station Alpha
Duration : 24 min 8s
Bit rate : 145 b/s
Count of elements : 425
Stream size : 25,7 KiB (0%)
Title : Illparazzo
Language : Polski
Default : Tak
Forced : Nie

Tekst #2
ID : 4
Format : ASS
Codec ID : S_TEXT/ASS
Codec ID/Info : Advanced Sub Station Alpha
Duration : 23 min 57s
Bit rate : 102 b/s
Count of elements : 375
Stream size : 17,9 KiB (0%)
Title : Msten1000
Language : Polski
Default : Nie
Forced : Nie

Tekst #3
ID : 5
Format : ASS
Codec ID : S_TEXT/ASS
Codec ID/Info : Advanced Sub Station Alpha
Duration : 23 min 50s
Bit rate : 142 b/s
Count of elements : 420
Stream size : 24,9 KiB (0%)
Title : ass
Language : Angielski
Default : Nie
Forced : Nie

Menu #1
00:00:00.033 : en:Episode
00:24:36.990 : en:ED

Menu #2
00:00:00.054 : en:00:00:00.054

SCREENY

DOWNLOAD
Kod:
Tekst widoczny dla zalogowanych.

Kod:
Tekst widoczny dla zalogowanych.

================
Little Witch Academia (2013) BD 1080p Hi10p AAC | Napisy PL
DANE TECHNICZNE
Ogólne
Unique ID : 232410529368213352312584272617308855061 (0xAED8A3C948EC2616BFE5CAB6618E9B15)
Complete name : [RTT] Little Witch Academia (BD 1080p Hi10p AAC)(383A1CFD).mkv
Format : Matroska
Format version : Version 2
File size : 661 MiB
Duration : 26 min 10s
Overall bit rate : 3.533 kb/s
Movie name : Akademia małych czarownic
Encoded date : UTC 2014-04-05 15:45:39
Writing application : mkvmerge v3.4.0 ('Rapunzel') built on May 15 2010 09:38:20
Writing library : libebml v0.8.0 + libmatroska v0.9.0
Attachments : JandaCurlygirlChunky.ttf / trebuc.ttf / trebucbd.ttf / trebucbi.ttf / trebucit.ttf

Wideo
ID : 1
Format : AVC
Format/Info : Advanced Video Codec
Format profile : High 10@L5.1
Format settings, CABAC : Tak
Format settings, ReFrames : 6 klatek
Codec ID : V_MPEG4/ISO/AVC
Duration : 26 min 10s
Width : 1.920 pikseli
Height : 1.080 pikseli
Display aspect ratio : 16:9
Frame rate mode : Stały
Frame rate : 23,976 (24000/1001) kl/s
Color space : YUV
Chroma subsampling : 4:2:0
Bit depth : 10 bitów
Scan type : Progresywny
Title : RTT
Writing library : x264 core 142 r2409+42 04be48a tMod [10-bit@all X86]
Encoding settings : cabac=1 / ref=6 / deblock=1:-1:-1 / analyse=0x3:0x133 / me=umh / subme=11 / psy=1 / fade_compensate=0.00 / psy_rd=0.30:0.00 / mixed_ref=1 / me_range=24 / chroma_me=1 / trellis=2 / 8x8dct=1 / cqm=0 / deadzone=21,11 / fast_pskip=1 / chroma_qp_offset=-4 / threads=12 / lookahead_threads=1 / sliced_threads=0 / nr=0 / decimate=1 / interlaced=0 / bluray_compat=0 / constrained_intra=0 / fgo=0 / bframes=6 / b_pyramid=2 / b_adapt=2 / b_bias=0 / direct=3 / weightb=1 / open_gop=0 / weightp=2 / keyint=250 / keyint_min=23 / scenecut=40 / intra_refresh=0 / rc=crf / mbtree=0 / crf=21.0000 / qcomp=0.60 / qpmin=0:0:0 / qpmax=81:81:81 / qpstep=4 / ip_ratio=1.40 / pb_ratio=1.30 / aq=3:0.60 / aq-sensitivity=10.00 / aq-factor=1.00:1.00:1.00 / aq2=0 / aq3=0
Language : Japoński
Default : Tak
Forced : Nie
Color range : Limited
Color primaries : BT.709
Transfer characteristics : BT.709
Matrix coefficients : BT.709

Audio
ID : 2
Format : AAC
Format/Info : Advanced Audio Codec
Format profile : LC
Codec ID : A_AAC
Duration : 26 min 10s
Channel(s) : 6 kanałów
Channel positions : Front: L C R, Side: L R, LFE
Sampling rate : 48,0 kHz
Frame rate : 46,875 kl/s (1024 SPF)
Delay relative to video : 9 ms
Title : AAC
Language : Japoński
Default : Tak
Forced : Nie

Tekst
ID : 3
Format : ASS
Codec ID : S_TEXT/ASS
Codec ID/Info : Advanced Sub Station Alpha
Title : Polskie [ASS]
Language : Polski
Default : Tak
Forced : Nie

SCREENY

DOWNLOAD
Kod:
Tekst widoczny dla zalogowanych.

Kod:
Tekst widoczny dla zalogowanych.
_____
Jeżeli pobrałeś albo spodobał Ci się mój post lub obejrzałeś moje materiały kliknij dziękuję to nic Cię nie kosztuje i za wszystkie bardzo dziękuje!!! :dziękuję:

Obraz
Sygnatura•••
Jest w serwisieyenxKopiuj nick
yenx

Płeć:
Dołączył:
Punkty: 106841$
Podziękowania: 2234
Posty: 5479
Inny język
ocenił na: 0
Little Witch Academia OVA (2013) [1080p | ENG sub]

~# DANE TECHNiCZNE / RELEASE .iNFO #~

General
Complete name : Little Witch Academia.mp4
Format : MPEG-4
File size : 631 MiB
Duration : 26mn 9s
Overall bit rate mode : Variable
Overall bit rate : 3 370 Kbps

Video
Format : AVC
Format profile : High@L4.0
Bit rate : 3 175 Kbps
Maximum bit rate : 10.9 Mbps
Width : 1 920 pixels
Height : 1 080 pixels
Display aspect ratio : 16:9
Frame rate mode : Constant
Frame rate : 29.970 fps
Chroma subsampling : 4:2:0
Bit depth : 8 bits
Scan type : Progressive
Stream size : 594 MiB (94%)

Audio
Format : AAC
Bit rate mode : Variable
Bit rate : 192 Kbps
Maximum bit rate : 202 Kbps
Channel(s) : 2 channels
Channel positions : Front: L R
Sampling rate : 44.1 KHz
Compression mode : Lossy
Stream size : 35.9 MiB (6%)


~# ZDJĘCiA / SCREENS #~



~# POBiERZ / DOWNLOAD #~

Obraz
Kod:
Tekst widoczny dla zalogowanych.
_____
Jeżeli pobrałeś albo spodobał Ci się mój post lub obejrzałeś moje materiały kliknij dziękuję to nic Cię nie kosztuje i za wszystkie bardzo dziękuje!!! :dziękuję:

Obraz
Sygnatura•••