Zaloguj
Kuromukuro

Akcja Anime Sci-fi Dramat
Anime, 2016
8,00  głosy: 1Oceń:
Ulubiony
Do obejrzenia
Obejrzany
Ocena MyAnimeList7,4/10 Ocena Filmweb7,1/10 Ocena IMDB7,5/10
Premiera:
2 grudnia 2016Polska7 kwietnia 2016
Produkcja:

Dodaj sezon
Nie ma w serwisieBastardowskyKopiuj nick
12,9%
Bastardowsky

Płeć:
Dołączył:
Punkty: 47$
Podziękowania: 156
Posty: 129
Dubbing PL / PL
ocenił na: 0
Kuromukuro.S01.1080p.BDRip.FLAC2.0.AVC-Moozzi2_pldubb_mux_by_SD
Obraz
Dane techniczne :
Spoiler
General
Unique ID : 190137845884514631578211385977099978308 (0x8F0B37938A29FC2E9F282EA269B30644)
Complete name : F:\0608\Kuromukuro.S01E01.1080p.BDRip.FLAC2.0.AVC-Moozzi2_pldubb_mux_by_SD.mkv
Format : Matroska
Format version : Version 4 / Version 2
File size : 1.63 GiB
Duration : 23 min 54 s
Overall bit rate mode : Variable
Overall bit rate : 9 741 kb/s
Encoded date : UTC 2017-06-09 16:18:57
Writing application : mkvmerge v9.7.1 ('Pandemonium') 64bit
Writing library : libebml v1.3.4 + libmatroska v1.4.5

Video
ID : 1
Format : AVC
Format/Info : Advanced Video Codec
Format profile : High@L5
Format settings, CABAC : Yes
Format settings, ReFrames : 5 frames
Codec ID : V_MPEG4/ISO/AVC
Duration : 23 min 42 s
Bit rate : 5 253 kb/s
Width : 1 920 pixels
Height : 1 080 pixels
Display aspect ratio : 16:9
Frame rate mode : Constant
Frame rate : 23.976 (24000/1001) FPS
Color space : YUV
Chroma subsampling : 4:2:0
Bit depth : 8 bits
Scan type : Progressive
Bits/(Pixel*Frame) : 0.106
Stream size : 890 MiB (53%)
Writing library : x264 core 148 r2744 b97ae06
Encoding settings : cabac=1 / ref=5 / deblock=1:1:1 / analyse=0x3:0x113 / me=umh / subme=9 / psy=1 / psy_rd=0.70:0.00 / mixed_ref=1 / me_range=32 / chroma_me=1 / trellis=0 / 8x8dct=1 / cqm=0 / deadzone=21,11 / fast_pskip=0 / chroma_qp_offset=-2 / threads=12 / lookahead_threads=1 / sliced_threads=0 / nr=0 / decimate=1 / interlaced=0 / bluray_compat=0 / constrained_intra=0 / bframes=3 / b_pyramid=2 / b_adapt=2 / b_bias=0 / direct=1 / weightb=1 / open_gop=0 / weightp=2 / keyint=240 / keyint_min=23 / scenecut=40 / intra_refresh=0 / rc_lookahead=40 / rc=crf / mbtree=1 / crf=16.0 / qcomp=0.60 / qpmin=0 / qpmax=69 / qpstep=4 / ip_ratio=1.40 / aq=1:1.00
Language : Japanese
Default : Yes
Forced : No

Audio #1
ID : 2
Format : FLAC
Format/Info : Free Lossless Audio Codec
Codec ID : A_FLAC
Duration : 23 min 42 s
Bit rate mode : Variable
Bit rate : 1 471 kb/s
Channel(s) : 2 channels
Channel positions : Front: L R
Sampling rate : 48.0 kHz
Frame rate : 11.719 FPS (4096 spf)
Bit depth : 24 bits
Stream size : 249 MiB (15%)
Writing library : libFLAC 1.3.2 (UTC 2017-01-01)
Language : Japanese
Default : Yes
Forced : No

Audio #2
ID : 3
Format : PCM
Codec ID : A_PCM/FLOAT/IEEE
Duration : 23 min 54 s
Bit rate mode : Constant
Bit rate : 3 072 kb/s
Channel(s) : 2 channels
Sampling rate : 48.0 kHz
Frame rate : 32.000 FPS (1500 spf)
Bit depth : 32 bits
Stream size : 525 MiB (32%)
Language : Polish
Default : No
Forced : No

Kod:
Tekst widoczny dla zalogowanych.
Podziękowania dla autora posta:
yenx, adi90a
Jest w serwisieyenxKopiuj nick
yenx

Płeć:
Dołączył:
Punkty: 106841$
Podziękowania: 2234
Posty: 5479
Dubbing PL / PL
ocenił na: 0
Kuromukuro (2016) [Sezon 1-2]
PLDUB.BRRip.480p.XviD-LTN / Dubbing PL


~# DANE TECHNiCZNE / RELEASE .iNFO #~

PLDUB.BRRip.480p.XviD-LTN / DUBBING PL
ŹRÓDŁO: SFEO-Raws / WEB
Format : AVI at 2 136 kb/s
Length : 362 MiB for 23 min 42 s 86 ms

Video #0 : MPEG-4 Visual at 1 747 kb/s
Aspect : 720 x 400 (1.800) at 23.976 fps

Audio #0 : AC-3 at 384 kb/s
Infos : 2 channels, 48.0 kHz


~# ZDJĘCiA / SCREENS #~



~# POBiERZ / DOWNLOAD #~

Obraz
Kod:
Tekst widoczny dla zalogowanych.

Obraz
Kod:
Tekst widoczny dla zalogowanych.

Obraz
Kod:
Tekst widoczny dla zalogowanych.


=========================

Kuromukuro (2016) [Sezon 1-2]
MULTI.BluRay.720p.x264.10Bit.LTN / Dubbing PL


~# DANE TECHNiCZNE / RELEASE .iNFO #~

MULTI.BluRay.720p.x264.10Bit.LTN / DUBBING PL
ŹRÓDŁO: SFEO-Raws / WEB
Format : Matroska at 2 107 kb/s
Length : 357 MiB for 23 min 42 s 165 ms

Video #0 : AVC at 1 556 kb/s
Aspect : 1280 x 720 (1.778) at 23.976 fps

Audio #0 : AC-3 at 384 kb/s
Infos : 2 channels, 48.0 kHz
Language : pl

Audio #1 : AAC at 165 kb/s
Infos : 2 channels, 48.0 kHz
Language : ja


~# ZDJĘCiA / SCREENS #~



~# POBiERZ / DOWNLOAD #~

Obraz
Kod:
Tekst widoczny dla zalogowanych.

Obraz
Kod:
Tekst widoczny dla zalogowanych.

Obraz
Kod:
Tekst widoczny dla zalogowanych.


=========================

Kuromukuro (2016) [Sezon 1-2]
MULTI.BluRay.1080p.x264.LTN / Dubbing PL


~# DANE TECHNiCZNE / RELEASE .iNFO #~

MULTI.BluRay.1080p.x264.LTN / DUBBING PL
ŹRÓDŁO: ReinForce / WEB
Format : Matroska at 7 318 kb/s
Length : 1.21 GiB for 23 min 42 s 90 ms

Video #0 : AVC at 5 472 kb/s
Aspect : 1920 x 1080 (1.778) at 23.976 fps

Audio #0 : AC-3 at 384 kb/s
Infos : 2 channels, 48.0 kHz
Language : pl

Audio #1 : FLAC at 1 459 kb/s
Infos : 2 channels, 48.0 kHz
Language : ja


~# ZDJĘCiA / SCREENS #~



~# POBiERZ / DOWNLOAD #~

Obraz
Kod:
Tekst widoczny dla zalogowanych.

Obraz
Kod:
Tekst widoczny dla zalogowanych.

Obraz
Kod:
Tekst widoczny dla zalogowanych.
_____
Jeżeli pobrałeś albo spodobał Ci się mój post lub obejrzałeś moje materiały kliknij dziękuję to nic Cię nie kosztuje i za wszystkie bardzo dziękuje!!! :dziękuję:

Obraz
Sygnatura•••
Jest w serwisieyenxKopiuj nick
yenx

Płeć:
Dołączył:
Punkty: 106841$
Podziękowania: 2234
Posty: 5479
Napisy PL
ocenił na: 0
Kuromukuro (2016) [Sezon 1-2]
PL.HDTV.x264 / Napisy PL


~# DANE TECHNiCZNE / RELEASE .iNFO #~

Kuromukuro - 01.mkv
Format : Matroska
File size : 435 MiB
Duration : 23mn 59s
Overall bit rate : 2 537 Kbps

Video
Width : 1 280 pixels
Height : 720 pixels
Display aspect ratio : 16:9
Title : zylasty

Audio
Format : AAC
Channel(s) : 2 channels
Sampling rate : 44.1 KHz
Language : Japanese

Text
Format : ASS
Codec ID : S_TEXT/ASS
Codec ID/Info : Advanced Sub Station Alpha
Language : Polish


~# ZDJĘCiA / SCREENS #~



~# POBiERZ / DOWNLOAD #~

Obraz
Kod:
Tekst widoczny dla zalogowanych.
_____
Jeżeli pobrałeś albo spodobał Ci się mój post lub obejrzałeś moje materiały kliknij dziękuję to nic Cię nie kosztuje i za wszystkie bardzo dziękuje!!! :dziękuję:

Obraz
Sygnatura•••