Zaloguj
Liga Sprawiedliwych: Akcja

Justice League Action
Kreskówka, 2016
10,00  głosy: 5Oceń:
Ulubiony
Do obejrzenia
Obejrzany
Premiera:
4 grudnia 2016Polska27 listopada 2016
Produkcja:

Dodaj sezon
Nie ma w serwisiebodek610Kopiuj nick
bodek610

Płeć:
Dołączył:
Punkty: 674$
Podziękowania: 277
Posty: 413
Dubbing PL / PL
ocenił na: 0
Justice.League.Action.S01E39-41+44.PLDUB.720p.AC3.2.0.H.264-YFN

Parametry przykładowego odcinka:
Spoiler
General
Unique ID : 229157437294324738026573960449350032736 (0xAC661DF6C10990CEB23382AB1809DD60)
Complete name : D:\bodzox\bodek\bodek\Justice.League.Action.S01E41.Harley.Dostaje.Małpiego.Rozumu.PLDUB.720p.AC3.2.0.H.264-YFN.mkv
Format : Matroska
Format version : Version 4 / Version 2
File size : 342 MiB
Duration : 10mn 49s
Overall bit rate : 4 421 Kbps
Encoded date : UTC 2017-12-05 19:12:30
Writing application : mkvmerge v8.6.1 ('Flying') 32bit
Writing library : libebml v1.3.3 + libmatroska v1.4.4
DURATION : 00:10:49.120000000
NUMBER_OF_FRAMES : 20285
NUMBER_OF_BYTES : 15578880
_STATISTICS_WRITING_APP : mkvmerge v8.6.1 ('Flying') 32bit
_STATISTICS_WRITING_DATE_UT : 2017-12-05 19:12:30
_STATISTICS_TAGS : BPS DURATION NUMBER_OF_FRAMES NUMBER_OF_BYTES

Video
ID : 1
Format : AVC
Format/Info : Advanced Video Codec
Format profile : High@L3.1
Format settings, CABAC : No
Format settings, ReFrames : 2 frames
Codec ID : V_MPEG4/ISO/AVC
Duration : 10mn 49s
Bit rate : 4 141 Kbps
Width : 1 280 pixels
Height : 718 pixels
Display aspect ratio : 16:9
Frame rate mode : Constant
Frame rate : 25.000 fps
Color space : YUV
Chroma subsampling : 4:2:0
Bit depth : 8 bits
Scan type : Progressive
Bits/(Pixel*Frame) : 0.180
Stream size : 320 MiB (94%)
Title : H.264
Default : Yes
Forced : No
Color primaries : BT.709
Transfer characteristics : BT.709
Matrix coefficients : BT.709
Color range : Limited

Audio
ID : 2
Format : AC-3
Format/Info : Audio Coding 3
Mode extension : CM (complete main)
Format settings, Endianness : Big
Codec ID : A_AC3
Duration : 10mn 49s
Bit rate mode : Constant
Bit rate : 192 Kbps
Channel(s) : 2 channels
Channel positions : Front: L R
Sampling rate : 48.0 KHz
Bit depth : 16 bits
Compression mode : Lossy
Stream size : 14.9 MiB (4%)
Default : Yes
Forced : No



S01E39 - Mózgobranie
Kod:
Tekst widoczny dla zalogowanych.


S01E40 - E.Nigma - Prywatny detektyw
Kod:
Tekst widoczny dla zalogowanych.


S01E41 - Harley dostaje małpiego rozumu
Kod:
Tekst widoczny dla zalogowanych.


S01E44 - Błąd systemu
Kod:
Tekst widoczny dla zalogowanych.


Kod:
Tekst widoczny dla zalogowanych.

Kod:
Tekst widoczny dla zalogowanych.
_____
Obraz
Sygnatura•••
Podziękowania dla autora posta:
yenx, Maniek123404
Nie ma w serwisiebodek610Kopiuj nick
bodek610

Płeć:
Dołączył:
Punkty: 674$
Podziękowania: 277
Posty: 413
Dubbing PL / PL
ocenił na: 0
Justice.League.Action.S01E43.Syn.Marnotrawny.PLDUB.720p.WEB-DL.AC3.2.0.H.264-YFN

Parametry techniczne odcinka:
Spoiler
General
Unique ID : 211933193463559196369966060051552127317 (0x9F70D92D7902378ABD8E3338BD19C955)
Complete name : D:\bodzox\bodek\bodek\Justice.League.Action.S01E43.Syn.Marnotrawny.PLDUB.720p.WEB-DL.AC3.2.0.H.264-YFN.mkv
Format : Matroska
Format version : Version 4 / Version 2
File size : 342 MiB
Duration : 10mn 49s
Overall bit rate : 4 416 Kbps
Encoded date : UTC 2017-12-11 18:53:42
Writing application : mkvmerge v8.6.1 ('Flying') 32bit
Writing library : libebml v1.3.3 + libmatroska v1.4.4
DURATION : 00:10:49.920000000
NUMBER_OF_FRAMES : 20310
NUMBER_OF_BYTES : 15598080
_STATISTICS_WRITING_APP : mkvmerge v8.6.1 ('Flying') 32bit
_STATISTICS_WRITING_DATE_UT : 2017-12-11 18:53:42
_STATISTICS_TAGS : BPS DURATION NUMBER_OF_FRAMES NUMBER_OF_BYTES

Video
ID : 1
Format : AVC
Format/Info : Advanced Video Codec
Format profile : High@L3.1
Format settings, CABAC : No
Format settings, ReFrames : 2 frames
Codec ID : V_MPEG4/ISO/AVC
Duration : 10mn 49s
Bit rate : 4 136 Kbps
Width : 1 280 pixels
Height : 718 pixels
Display aspect ratio : 16:9
Frame rate mode : Constant
Frame rate : 25.000 fps
Color space : YUV
Chroma subsampling : 4:2:0
Bit depth : 8 bits
Scan type : Progressive
Bits/(Pixel*Frame) : 0.180
Stream size : 320 MiB (94%)
Title : H.264
Default : Yes
Forced : No
Color primaries : BT.709
Transfer characteristics : BT.709
Matrix coefficients : BT.709
Color range : Limited

Audio
ID : 2
Format : AC-3
Format/Info : Audio Coding 3
Mode extension : CM (complete main)
Format settings, Endianness : Big
Codec ID : A_AC3
Duration : 10mn 49s
Bit rate mode : Constant
Bit rate : 192 Kbps
Channel(s) : 2 channels
Channel positions : Front: L R
Sampling rate : 48.0 KHz
Bit depth : 16 bits
Compression mode : Lossy
Stream size : 14.9 MiB (4%)
Default : Yes
Forced : No



Kod:
Tekst widoczny dla zalogowanych.
_____
Obraz
Sygnatura•••
Podziękowania dla autora posta:
yenx, Maniek123404
Nie ma w serwisiebodek610Kopiuj nick
bodek610

Płeć:
Dołączył:
Punkty: 674$
Podziękowania: 277
Posty: 413
Dubbing PL / PL
ocenił na: 0
Justice.League.Action.S01E45.Walka.ze.Złem.PLDUB.720p.WEB-DL.AC3.2.0.H.264-YFN

Parametry techniczne odcinka:
Spoiler
General
Unique ID : 212186945378863557704638801896828392635 (0x9FA1B81CEC242EBCBF634BBD126D54BB)
Complete name : D:\bodzox\bodek\bodek\Justice.League.Action.S01E45.Walka.ze.Złem.PLDUB.720p.WEB-DL.AC3.2.0.H.264-YFN.mkv
Format : Matroska
Format version : Version 4 / Version 2
File size : 327 MiB
Duration : 10mn 22s
Overall bit rate : 4 404 Kbps
Encoded date : UTC 2017-12-18 07:11:18
Writing application : mkvmerge v8.6.1 ('Flying') 32bit
Writing library : libebml v1.3.3 + libmatroska v1.4.4
DURATION : 00:10:22.784000000
NUMBER_OF_FRAMES : 19462
NUMBER_OF_BYTES : 14946816
_STATISTICS_WRITING_APP : mkvmerge v8.6.1 ('Flying') 32bit
_STATISTICS_WRITING_DATE_UT : 2017-12-18 07:11:18
_STATISTICS_TAGS : BPS DURATION NUMBER_OF_FRAMES NUMBER_OF_BYTES

Video
ID : 1
Format : AVC
Format/Info : Advanced Video Codec
Format profile : High@L3.1
Format settings, CABAC : No
Format settings, ReFrames : 2 frames
Codec ID : V_MPEG4/ISO/AVC
Duration : 10mn 22s
Bit rate : 4 124 Kbps
Width : 1 280 pixels
Height : 718 pixels
Display aspect ratio : 16:9
Frame rate mode : Constant
Frame rate : 25.000 fps
Color space : YUV
Chroma subsampling : 4:2:0
Bit depth : 8 bits
Scan type : Progressive
Bits/(Pixel*Frame) : 0.179
Stream size : 306 MiB (94%)
Title : H.264
Default : Yes
Forced : No
Color primaries : BT.709
Transfer characteristics : BT.709
Matrix coefficients : BT.709
Color range : Limited

Audio
ID : 2
Format : AC-3
Format/Info : Audio Coding 3
Mode extension : CM (complete main)
Format settings, Endianness : Big
Codec ID : A_AC3
Duration : 10mn 22s
Bit rate mode : Constant
Bit rate : 192 Kbps
Channel(s) : 2 channels
Channel positions : Front: L R
Sampling rate : 48.0 KHz
Bit depth : 16 bits
Compression mode : Lossy
Stream size : 14.3 MiB (4%)
Default : Yes
Forced : No



Kod:
Tekst widoczny dla zalogowanych.
_____
Obraz
Sygnatura•••
Podziękowania dla autora posta:
yenx, Maniek123404
Nie ma w serwisiebodek610Kopiuj nick
bodek610

Płeć:
Dołączył:
Punkty: 674$
Podziękowania: 277
Posty: 413
Dubbing PL / PL
ocenił na: 0
Justice.League.Action.S01E46.Zwierzę.Imprezowe.PLDUB.720p.WEB-DL.AC3.2.0.H.264-YFN

Parametry techniczne odcinka:
Spoiler
General
Unique ID : 200016241040984116525477635725265047532 (0x9679BA0F76C3467AAA8FFCCDD9098FEC)
Complete name : C:\filmy\Justice League Action\Justice.League.Action.S01E46.Zwierzę.Imprezowe.PLDUB.720p.WEB-DL.AC3.2.0.H.264-YFN.mkv
Format : Matroska
Format version : Version 4 / Version 2
File size : 341 MiB
Duration : 10mn 50s
Overall bit rate : 4 393 Kbps
Encoded date : UTC 2017-12-24 21:33:41
Writing application : mkvmerge v7.6.0 ('Garden of Dreams') 64bit built on Feb 8 2015 13:04:34
Writing library : libebml v1.3.1 + libmatroska v1.4.2
DURATION : 00:10:50.592000000
NUMBER_OF_FRAMES : 20331
NUMBER_OF_BYTES : 15614208
_STATISTICS_WRITING_APP : mkvmerge v7.6.0 ('Garden of Dreams') 64bit built on Feb 8 2015 13:04:34
_STATISTICS_WRITING_DATE_UTC : 2017-12-24 21:33:41
_STATISTICS_TAGS : BPS DURATION NUMBER_OF_FRAMES NUMBER_OF_BYTES

Video
ID : 1
Format : AVC
Format/Info : Advanced Video Codec
Format profile : High@L3.1
Format settings, CABAC : No
Format settings, ReFrames : 2 frames
Codec ID : V_MPEG4/ISO/AVC
Duration : 10mn 50s
Bit rate : 4 114 Kbps
Width : 1 280 pixels
Height : 718 pixels
Display aspect ratio : 16:9
Frame rate mode : Constant
Frame rate : 25.000 fps
Color space : YUV
Chroma subsampling : 4:2:0
Bit depth : 8 bits
Scan type : Progressive
Bits/(Pixel*Frame) : 0.179
Stream size : 319 MiB (94%)
Title : H.264
Default : Yes
Forced : No
Color primaries : BT.709
Transfer characteristics : BT.709
Matrix coefficients : BT.709

Audio
ID : 2
Format : AC-3
Format/Info : Audio Coding 3
Mode extension : CM (complete main)
Format settings, Endianness : Big
Codec ID : A_AC3
Duration : 10mn 50s
Bit rate mode : Constant
Bit rate : 192 Kbps
Channel(s) : 2 channels
Channel positions : Front: L R
Sampling rate : 48.0 KHz
Bit depth : 16 bits
Compression mode : Lossy
Stream size : 14.9 MiB (4%)
Default : Yes
Forced : No


Kod:
Tekst widoczny dla zalogowanych.
_____
Obraz
Sygnatura•••
Podziękowania dla autora posta:
yenx, Maniek123404
Nie ma w serwisiebodek610Kopiuj nick
bodek610

Płeć:
Dołączył:
Punkty: 674$
Podziękowania: 277
Posty: 413
Dubbing PL / PL
ocenił na: 0
Justice.League.Action.S01E47.Wycieczka.po.Wieży.Strażniczej.PLDUB.720p.WEB-DL.AC3.2.0.H.264-YFN

Parametry techniczne odcinka:
Spoiler
General
Unique ID : 201914048037428915371113774680261128740 (0x97E73B2B62E5E7D79399C5550931F224)
Complete name : D:\bodzox\bodek\bodek\Justice.League.Action.S01E47.Wycieczka.po.Wieży.Strażniczej.PLDUB.720p.WEB-DL.AC3.2.0.H.264-YFN.mkv
Format : Matroska
Format version : Version 4 / Version 2
File size : 344 MiB
Duration : 10mn 49s
Overall bit rate : 4 439 Kbps
Encoded date : UTC 2018-01-11 17:41:25
Writing application : mkvmerge v8.6.1 ('Flying') 32bit
Writing library : libebml v1.3.3 + libmatroska v1.4.4
DURATION : 00:10:49.696000000
NUMBER_OF_FRAMES : 20303
NUMBER_OF_BYTES : 15592704
_STATISTICS_WRITING_APP : mkvmerge v8.6.1 ('Flying') 32bit
_STATISTICS_WRITING_DATE_UT : 2018-01-11 17:41:25
_STATISTICS_TAGS : BPS DURATION NUMBER_OF_FRAMES NUMBER_OF_BYTES

Video
ID : 1
Format : AVC
Format/Info : Advanced Video Codec
Format profile : High@L3.1
Format settings, CABAC : No
Format settings, ReFrames : 2 frames
Codec ID : V_MPEG4/ISO/AVC
Duration : 10mn 49s
Bit rate : 4 159 Kbps
Width : 1 280 pixels
Height : 718 pixels
Display aspect ratio : 16:9
Frame rate mode : Constant
Frame rate : 25.000 fps
Color space : YUV
Chroma subsampling : 4:2:0
Bit depth : 8 bits
Scan type : Progressive
Bits/(Pixel*Frame) : 0.181
Stream size : 322 MiB (94%)
Title : H.264
Default : Yes
Forced : No
Color primaries : BT.709
Transfer characteristics : BT.709
Matrix coefficients : BT.709
Color range : Limited

Audio
ID : 2
Format : AC-3
Format/Info : Audio Coding 3
Mode extension : CM (complete main)
Format settings, Endianness : Big
Codec ID : A_AC3
Duration : 10mn 49s
Bit rate mode : Constant
Bit rate : 192 Kbps
Channel(s) : 2 channels
Channel positions : Front: L R
Sampling rate : 48.0 KHz
Bit depth : 16 bits
Compression mode : Lossy
Stream size : 14.9 MiB (4%)
Default : Yes
Forced : No



Kod:
Tekst widoczny dla zalogowanych.
_____
Obraz
Sygnatura•••
Podziękowania dla autora posta:
yenx, Maniek123404
Nie ma w serwisiebodek610Kopiuj nick
bodek610

Płeć:
Dołączył:
Punkty: 674$
Podziękowania: 277
Posty: 413
Dubbing PL / PL
ocenił na: 0
Justice.League.Action.S01E48.Gołyma.Rękami.PLDUB.720p.WEB-DL.AC3.2.0.H.264-YFN

Parametry techniczne odcinka:
Spoiler
General
Unique ID : 220850461161884931426116241087007052143 (0xA626406B5ECAA02CA5C9A8DB63A4516F)
Complete name : C:\filmy\Justice League Action\Justice.League.Action.S01E48.Gołyma.Rękami.PLDUB.720p.WEB-DL.AC3.2.0.H.264-YFN.mkv
Format : Matroska
Format version : Version 4 / Version 2
File size : 338 MiB
Duration : 10mn 47s
Overall bit rate : 4 385 Kbps
Encoded date : UTC 2018-01-14 19:33:37
Writing application : mkvmerge v8.6.1 ('Flying') 32bit
Writing library : libebml v1.3.3 + libmatroska v1.4.4
DURATION : 00:10:47.232000000
NUMBER_OF_FRAMES : 20226
NUMBER_OF_BYTES : 15533568
_STATISTICS_WRITING_APP : mkvmerge v8.6.1 ('Flying') 32bit
_STATISTICS_WRITING_DATE_UTC : 2018-01-14 19:33:37
_STATISTICS_TAGS : BPS DURATION NUMBER_OF_FRAMES NUMBER_OF_BYTES

Video
ID : 1
Format : AVC
Format/Info : Advanced Video Codec
Format profile : High@L3.1
Format settings, CABAC : No
Format settings, ReFrames : 2 frames
Codec ID : V_MPEG4/ISO/AVC
Duration : 10mn 47s
Bit rate : 4 105 Kbps
Width : 1 280 pixels
Height : 718 pixels
Display aspect ratio : 16:9
Frame rate mode : Constant
Frame rate : 25.000 fps
Color space : YUV
Chroma subsampling : 4:2:0
Bit depth : 8 bits
Scan type : Progressive
Bits/(Pixel*Frame) : 0.179
Stream size : 317 MiB (94%)
Title : H.264
Default : Yes
Forced : No
Color primaries : BT.709
Transfer characteristics : BT.709
Matrix coefficients : BT.709

Audio
ID : 2
Format : AC-3
Format/Info : Audio Coding 3
Mode extension : CM (complete main)
Format settings, Endianness : Big
Codec ID : A_AC3
Duration : 10mn 47s
Bit rate mode : Constant
Bit rate : 192 Kbps
Channel(s) : 2 channels
Channel positions : Front: L R
Sampling rate : 48.0 KHz
Bit depth : 16 bits
Compression mode : Lossy
Stream size : 14.8 MiB (4%)
Default : Yes
Forced : No


Kod:
Tekst widoczny dla zalogowanych.
_____
Obraz
Sygnatura•••
Podziękowania dla autora posta:
Maniek123404, yenx
Nie ma w serwisiebodek610Kopiuj nick
bodek610

Płeć:
Dołączył:
Punkty: 674$
Podziękowania: 277
Posty: 413
Dubbing PL / PL
ocenił na: 0
Justice.League.Action.S01E49.Kapitan.Wkrętka.PLDUB.720p.WEB-DL.AC3.2.0.H.264-YFN

Parametry techniczne odcinka:
Spoiler
General
Unique ID : 228052972686644004330659288937974545400 (0xAB9167A78D0513B3B383252ABDB93BF8)
Complete name : C:\filmy\Justice League Action\Justice.League.Action.S01E49.Kapitan.Wkrętka.PLDUB.720p.WEB-DL.AC3.2.0.H.264-YFN.mkv
Format : Matroska
Format version : Version 4 / Version 2
File size : 342 MiB
Duration : 10mn 49s
Overall bit rate : 4 411 Kbps
Encoded date : UTC 2018-01-21 17:26:24
Writing application : mkvmerge v8.6.1 ('Flying') 32bit
Writing library : libebml v1.3.3 + libmatroska v1.4.4
DURATION : 00:10:49.920000000
NUMBER_OF_FRAMES : 20310
NUMBER_OF_BYTES : 15598080
_STATISTICS_WRITING_APP : mkvmerge v8.6.1 ('Flying') 32bit
_STATISTICS_WRITING_DATE_UTC : 2018-01-21 17:26:24
_STATISTICS_TAGS : BPS DURATION NUMBER_OF_FRAMES NUMBER_OF_BYTES

Video
ID : 1
Format : AVC
Format/Info : Advanced Video Codec
Format profile : High@L3.1
Format settings, CABAC : No
Format settings, ReFrames : 2 frames
Codec ID : V_MPEG4/ISO/AVC
Duration : 10mn 49s
Bit rate : 4 131 Kbps
Width : 1 280 pixels
Height : 718 pixels
Display aspect ratio : 16:9
Frame rate mode : Constant
Frame rate : 25.000 fps
Color space : YUV
Chroma subsampling : 4:2:0
Bit depth : 8 bits
Scan type : Progressive
Bits/(Pixel*Frame) : 0.180
Stream size : 320 MiB (94%)
Title : H.264
Default : Yes
Forced : No
Color primaries : BT.709
Transfer characteristics : BT.709
Matrix coefficients : BT.709

Audio
ID : 2
Format : AC-3
Format/Info : Audio Coding 3
Mode extension : CM (complete main)
Format settings, Endianness : Big
Codec ID : A_AC3
Duration : 10mn 49s
Bit rate mode : Constant
Bit rate : 192 Kbps
Channel(s) : 2 channels
Channel positions : Front: L R
Sampling rate : 48.0 KHz
Bit depth : 16 bits
Compression mode : Lossy
Stream size : 14.9 MiB (4%)
Default : Yes
Forced : No



Kod:
Tekst widoczny dla zalogowanych.
_____
Obraz
Sygnatura•••
Podziękowania dla autora posta:
yenx, Maniek123404
Nie ma w serwisiebodek610Kopiuj nick
bodek610

Płeć:
Dołączył:
Punkty: 674$
Podziękowania: 277
Posty: 413
Dubbing PL / PL
ocenił na: 0
Justice.League.Action.S01E50.Z.Kim.Przystajesz.Takim.Się.Stajesz.PLDUB.720p.WEB-DL.AC3.2.0.H.264-YFN

Parametry techniczne odcinka:
Spoiler
General
Unique ID : 186028894621995661061946110683371413924 (0x8BF3DCA3572101B285666D79218221A4)
Complete name : C:\filmy\Justice League Action\Justice.League.Action.S01E50.Z.Kim.Przystajesz.Takim.Się.Stajesz.PLDUB.720p.WEB-DL.AC3.2.0.H.264-YFN.mkv
Format : Matroska
Format version : Version 4 / Version 2
File size : 345 MiB
Duration : 10mn 47s
Overall bit rate : 4 465 Kbps
Encoded date : UTC 2018-01-28 18:37:57
Writing application : mkvmerge v7.6.0 ('Garden of Dreams') 64bit built on Feb 8 2015 13:04:34
Writing library : libebml v1.3.1 + libmatroska v1.4.2
DURATION : 00:10:47.456000000
NUMBER_OF_FRAMES : 20233
NUMBER_OF_BYTES : 15538944
_STATISTICS_WRITING_APP : mkvmerge v7.6.0 ('Garden of Dreams') 64bit built on Feb 8 2015 13:04:34
_STATISTICS_WRITING_DATE_UTC : 2018-01-28 18:37:57
_STATISTICS_TAGS : BPS DURATION NUMBER_OF_FRAMES NUMBER_OF_BYTES

Video
ID : 1
Format : AVC
Format/Info : Advanced Video Codec
Format profile : High@L3.1
Format settings, CABAC : No
Format settings, ReFrames : 2 frames
Codec ID : V_MPEG4/ISO/AVC
Duration : 10mn 47s
Bit rate : 4 184 Kbps
Width : 1 280 pixels
Height : 718 pixels
Display aspect ratio : 16:9
Frame rate mode : Constant
Frame rate : 25.000 fps
Color space : YUV
Chroma subsampling : 4:2:0
Bit depth : 8 bits
Scan type : Progressive
Bits/(Pixel*Frame) : 0.182
Stream size : 323 MiB (94%)
Title : H.264
Default : Yes
Forced : No
Color primaries : BT.709
Transfer characteristics : BT.709
Matrix coefficients : BT.709

Audio
ID : 2
Format : AC-3
Format/Info : Audio Coding 3
Mode extension : CM (complete main)
Format settings, Endianness : Big
Codec ID : A_AC3
Duration : 10mn 47s
Bit rate mode : Constant
Bit rate : 192 Kbps
Channel(s) : 2 channels
Channel positions : Front: L R
Sampling rate : 48.0 KHz
Bit depth : 16 bits
Compression mode : Lossy
Stream size : 14.8 MiB (4%)
Default : Yes
Forced : No



Kod:
Tekst widoczny dla zalogowanych.
_____
Obraz
Sygnatura•••
Podziękowania dla autora posta:
yenx, Maniek123404
Nie ma w serwisiebodek610Kopiuj nick
bodek610

Płeć:
Dołączył:
Punkty: 674$
Podziękowania: 277
Posty: 413
Dubbing PL / PL
ocenił na: 0
Justice.League.Action.S01E51.Spuszczony.ze.Smyczy.PLDUB.720p.WEB-DL.AC3.2.0.H.264-YFN

Parametry techniczne odcinka:
Spoiler
General
Unique ID : 215608143002075849354704590731557708491 (0xA2349E2DC945E36ABC9FE5500E6FA2CB)
Complete name : C:\filmy\Justice League Action\Justice.League.Action.S01E51.Spuszczony.ze.Smyczy.PLDUB.720p.WEB-DL.AC3.2.0.H.264-YFN.mkv
Format : Matroska
Format version : Version 4 / Version 2
File size : 341 MiB
Duration : 10mn 44s
Overall bit rate : 4 431 Kbps
Encoded date : UTC 2018-02-04 14:42:13
Writing application : mkvmerge v7.6.0 ('Garden of Dreams') 64bit built on Feb 8 2015 13:04:34
Writing library : libebml v1.3.1 + libmatroska v1.4.2
DURATION : 00:10:44.608000000
NUMBER_OF_FRAMES : 20144
NUMBER_OF_BYTES : 15470592
_STATISTICS_WRITING_APP : mkvmerge v7.6.0 ('Garden of Dreams') 64bit built on Feb 8 2015 13:04:34
_STATISTICS_WRITING_DATE_UTC : 2018-02-04 14:42:13
_STATISTICS_TAGS : BPS DURATION NUMBER_OF_FRAMES NUMBER_OF_BYTES

Video
ID : 1
Format : AVC
Format/Info : Advanced Video Codec
Format profile : High@L3.1
Format settings, CABAC : No
Format settings, ReFrames : 2 frames
Codec ID : V_MPEG4/ISO/AVC
Duration : 10mn 44s
Bit rate : 4 151 Kbps
Width : 1 280 pixels
Height : 718 pixels
Display aspect ratio : 16:9
Frame rate mode : Constant
Frame rate : 25.000 fps
Color space : YUV
Chroma subsampling : 4:2:0
Bit depth : 8 bits
Scan type : Progressive
Bits/(Pixel*Frame) : 0.181
Stream size : 319 MiB (94%)
Title : H.264
Default : Yes
Forced : No
Color primaries : BT.709
Transfer characteristics : BT.709
Matrix coefficients : BT.709

Audio
ID : 2
Format : AC-3
Format/Info : Audio Coding 3
Mode extension : CM (complete main)
Format settings, Endianness : Big
Codec ID : A_AC3
Duration : 10mn 44s
Bit rate mode : Constant
Bit rate : 192 Kbps
Channel(s) : 2 channels
Channel positions : Front: L R
Sampling rate : 48.0 KHz
Bit depth : 16 bits
Compression mode : Lossy
Stream size : 14.8 MiB (4%)
Default : Yes
Forced : No



Kod:
Tekst widoczny dla zalogowanych.


Kod:
Tekst widoczny dla zalogowanych.
_____
Obraz
Sygnatura•••
Podziękowania dla autora posta:
yenx, Maniek123404
Nie ma w serwisiebodek610Kopiuj nick
bodek610

Płeć:
Dołączył:
Punkty: 674$
Podziękowania: 277
Posty: 413
Dubbing PL / PL
ocenił na: 0
Justice.League.Action.S01E52.Kobieta.w.Czerwieni.PLDUB.720p.WEB-DL.AC3.2.0.H.264-YFN

Parametry techniczne odcinka:
Spoiler
General
Unique ID : 187137565529198487842982802217738051014 (0x8CC9625581ECC3049CF9986730061DC6)
Complete name : C:\filmy\Justice League Action\Justice.League.Action.S01E52.Kobieta.w.Czerwieni.PLDUB.720p.WEB-DL.AC3.2.0.H.264-YFN.mkv
Format : Matroska
Format version : Version 4 / Version 2
File size : 341 MiB
Duration : 10mn 47s
Overall bit rate : 4 420 Kbps
Encoded date : UTC 2018-02-11 10:12:53
Writing application : mkvmerge v7.6.0 ('Garden of Dreams') 64bit built on Feb 8 2015 13:04:34
Writing library : libebml v1.3.1 + libmatroska v1.4.2
DURATION : 00:10:47.232000000
NUMBER_OF_FRAMES : 20226
NUMBER_OF_BYTES : 15533568
_STATISTICS_WRITING_APP : mkvmerge v7.6.0 ('Garden of Dreams') 64bit built on Feb 8 2015 13:04:34
_STATISTICS_WRITING_DATE_UTC : 2018-02-11 10:12:53
_STATISTICS_TAGS : BPS DURATION NUMBER_OF_FRAMES NUMBER_OF_BYTES

Video
ID : 1
Format : AVC
Format/Info : Advanced Video Codec
Format profile : High@L3.1
Format settings, CABAC : No
Format settings, ReFrames : 2 frames
Codec ID : V_MPEG4/ISO/AVC
Duration : 10mn 47s
Bit rate : 4 140 Kbps
Width : 1 280 pixels
Height : 718 pixels
Display aspect ratio : 16:9
Frame rate mode : Constant
Frame rate : 25.000 fps
Color space : YUV
Chroma subsampling : 4:2:0
Bit depth : 8 bits
Scan type : Progressive
Bits/(Pixel*Frame) : 0.180
Stream size : 319 MiB (94%)
Title : H.264
Default : Yes
Forced : No
Color primaries : BT.709
Transfer characteristics : BT.709
Matrix coefficients : BT.709

Audio
ID : 2
Format : AC-3
Format/Info : Audio Coding 3
Mode extension : CM (complete main)
Format settings, Endianness : Big
Codec ID : A_AC3
Duration : 10mn 47s
Bit rate mode : Constant
Bit rate : 192 Kbps
Channel(s) : 2 channels
Channel positions : Front: L R
Sampling rate : 48.0 KHz
Bit depth : 16 bits
Compression mode : Lossy
Stream size : 14.8 MiB (4%)
Default : Yes
Forced : No



Kod:
Tekst widoczny dla zalogowanych.
_____
Obraz
Sygnatura•••
Podziękowania dla autora posta:
yenx, Maniek123404