Zaloguj
Liga Sprawiedliwych: Akcja

Justice League Action
Kreskówka, 2016
10,00  głosy: 5Oceń:
Ulubiony
Do obejrzenia
Obejrzany
Premiera:
4 grudnia 2016Polska27 listopada 2016
Produkcja:

Dodaj sezon
Nie ma w serwisiebodek610Kopiuj nick
bodek610

Płeć:
Dołączył:
Punkty: 674$
Podziękowania: 277
Posty: 413
Dubbing PL / PL
ocenił na: 0
Justice.League.Action.S01E25.Ogród.Zła.PLDUB.720p.WEB-DL.AC3.2.0.H.264-YFN

Parametry techniczne odcinka:
Spoiler
General
Unique ID : 220022174674659170399801569030135580731 (0xA586BABE1EE9D33C95A94814B64B883B)
Complete name : C:\filmy\Justice League Action\Justice.League.Action.S01E25.Ogród.Zła.PLDUB.720p.WEB-DL.AC3.2.0.H.264-YFN.mkv
Format : Matroska
Format version : Version 4 / Version 2
File size : 333 MiB
Duration : 10mn 36s
Overall bit rate : 4 393 Kbps
Encoded date : UTC 2017-06-26 06:15:50
Writing application : mkvmerge v7.6.0 ('Garden of Dreams') 64bit built on Feb 8 2015 13:04:34
Writing library : libebml v1.3.1 + libmatroska v1.4.2
DURATION : 00:10:36.320000000
NUMBER_OF_FRAMES : 19885
NUMBER_OF_BYTES : 15271680
_STATISTICS_WRITING_APP : mkvmerge v7.6.0 ('Garden of Dreams') 64bit built on Feb 8 2015 13:04:34
_STATISTICS_WRITING_DATE_UTC : 2017-06-26 06:15:50
_STATISTICS_TAGS : BPS DURATION NUMBER_OF_FRAMES NUMBER_OF_BYTES

Video
ID : 1
Format : AVC
Format/Info : Advanced Video Codec
Format profile : High@L3.1
Format settings, CABAC : No
Format settings, ReFrames : 2 frames
Codec ID : V_MPEG4/ISO/AVC
Duration : 10mn 36s
Bit rate : 4 114 Kbps
Width : 1 280 pixels
Height : 718 pixels
Display aspect ratio : 16:9
Frame rate mode : Constant
Frame rate : 25.000 fps
Color space : YUV
Chroma subsampling : 4:2:0
Bit depth : 8 bits
Scan type : Progressive
Bits/(Pixel*Frame) : 0.179
Stream size : 312 MiB (94%)
Title : H.264
Default : Yes
Forced : No
Color primaries : BT.709
Transfer characteristics : BT.709
Matrix coefficients : BT.709

Audio
ID : 2
Format : AC-3
Format/Info : Audio Coding 3
Mode extension : CM (complete main)
Format settings, Endianness : Big
Codec ID : A_AC3
Duration : 10mn 36s
Bit rate mode : Constant
Bit rate : 192 Kbps
Channel(s) : 2 channels
Channel positions : Front: L R
Sampling rate : 48.0 KHz
Bit depth : 16 bits
Compression mode : Lossy
Stream size : 14.6 MiB (4%)
Default : Yes
Forced : No


Kod:
Tekst widoczny dla zalogowanych.
_____
Obraz
Sygnatura•••
Podziękowania dla autora posta:
yenx
Nie ma w serwisiebodek610Kopiuj nick
bodek610

Płeć:
Dołączył:
Punkty: 674$
Podziękowania: 277
Posty: 413
Dubbing PL / PL
ocenił na: 0
Justice.League.Action.S01E26.Wsiąść.do.Pociągu.Międzygwiezdnego.PLDUB.720p.WEB-DL.AC3.2.0.H.264-YFN

Parametry techniczne odcinka:
Spoiler
eneral
Unique ID : 188898367046854893841981805433765542478 (0x8E1C808D2C7416A6841D599017C8BA4E)
Complete name : C:\filmy\Justice League Action\Justice.League.Action.S01E26.Wsiąść.do.Pociągu.Międzygwiezdnego.PLDUB..720p.WEB-DL.AC3.2.0.H.264-YFN.mkv
Format : Matroska
Format version : Version 4 / Version 2
File size : 344 MiB
Duration : 10mn 49s
Overall bit rate : 4 444 Kbps
Encoded date : UTC 2017-07-04 15:19:47
Writing application : mkvmerge v7.6.0 ('Garden of Dreams') 64bit built on Feb 8 2015 13:04:34
Writing library : libebml v1.3.1 + libmatroska v1.4.2
DURATION : 00:10:49.952000000
NUMBER_OF_FRAMES : 20311
NUMBER_OF_BYTES : 15598848
_STATISTICS_WRITING_APP : mkvmerge v7.6.0 ('Garden of Dreams') 64bit built on Feb 8 2015 13:04:34
_STATISTICS_WRITING_DATE_UTC : 2017-07-04 15:19:47
_STATISTICS_TAGS : BPS DURATION NUMBER_OF_FRAMES NUMBER_OF_BYTES

Video
ID : 1
Format : AVC
Format/Info : Advanced Video Codec
Format profile : High@L3.1
Format settings, CABAC : No
Format settings, ReFrames : 2 frames
Codec ID : V_MPEG4/ISO/AVC
Duration : 10mn 49s
Bit rate : 4 164 Kbps
Width : 1 280 pixels
Height : 718 pixels
Display aspect ratio : 16:9
Frame rate mode : Constant
Frame rate : 25.000 fps
Color space : YUV
Chroma subsampling : 4:2:0
Bit depth : 8 bits
Scan type : Progressive
Bits/(Pixel*Frame) : 0.181
Stream size : 323 MiB (94%)
Title : H.264
Default : Yes
Forced : No
Color primaries : BT.709
Transfer characteristics : BT.709
Matrix coefficients : BT.709

Audio
ID : 2
Format : AC-3
Format/Info : Audio Coding 3
Mode extension : CM (complete main)
Format settings, Endianness : Big
Codec ID : A_AC3
Duration : 10mn 49s
Bit rate mode : Constant
Bit rate : 192 Kbps
Channel(s) : 2 channels
Channel positions : Front: L R
Sampling rate : 48.0 KHz
Bit depth : 16 bits
Compression mode : Lossy
Stream size : 14.9 MiB (4%)
Default : Yes
Forced : No


Kod:
Tekst widoczny dla zalogowanych.
_____
Obraz
Sygnatura•••
Podziękowania dla autora posta:
Nillay, Maniek123404, yenx
Jest w serwisieyenxKopiuj nick
yenx

Płeć:
Dołączył:
Punkty: 117830$
Podziękowania: 2478
Posty: 6718
Dubbing PL / PL
ocenił na: 0
Liga Sprawiedliwych Akcja / Justice League Action (2016-) S01E01-E21
1080p.HDTV.PL.DUB.x264-eend / Dubbing PL


~# DANE TECHNiCZNE / RELEASE .iNFO #~

Dane techniczne przykładowego odcinka:
Rozmiar pliku: 435.0 MiB , Czas trwania: 00:10:48 , Ogólne bitrate pliku: 5 625 Kbps , Format: Matroska , Video FPS: 25.000 , Video bitrate: 5 193 Kbps Video rozdzielczość: 1920x1080 , Video rozmiar: 402 MiB (92%)
Video proporcje obrazu: 16:9 , Source Video: od grupy GDR i YFN. [Thanks!]
Audio format: MPEG Audio , Audio bitrate: 128 Kbps , Audio liczba kanałów: 2 , Audio sampling rate: 32.0 KHz , Audio rozmiar: 27.8 MiB (6%), Audio:Source PL od eend


~# ZDJĘCiA / SCREENS #~



~# POBiERZ / DOWNLOAD #~

Obraz
Kod:
Tekst widoczny dla zalogowanych.

Obraz
Kod:
Tekst widoczny dla zalogowanych.

Obraz
Kod:
Tekst widoczny dla zalogowanych.
_____
Jeżeli pobrałeś albo spodobał Ci się mój post lub obejrzałeś moje materiały kliknij dziękuję to nic Cię nie kosztuje i za wszystkie bardzo dziękuje!!! :dziękuję:

Obraz
Sygnatura•••
Nie ma w serwisiebodek610Kopiuj nick
bodek610

Płeć:
Dołączył:
Punkty: 674$
Podziękowania: 277
Posty: 413
Dubbing PL / PL
ocenił na: 0
Justice.League.Action.S01E27-33.PLDUB.720p.WEB-DL.AC3.2.0.H.264-YFN

Za audio do podkładu dziękuję użytkownikowi @yenx. Zezwalam na reupload odcinków pod warunkiem, że zostaną zachowane jakość podkładów oraz czas ich trwania.


Parametry przykładowego odcinka:
Spoiler
General
Unique ID : 221419597185163076102665361342704994134 (0xA693DCFDE813D5EAB66C85B6E38D4756)
Complete name : D:\bodzox\bodek\bodek\Justice.League.Action.S01E33.Najlepszy.Dzień.w.Życiu.PLDUB.720p.WEB-DL.AC3.2.0.H.264-YFN.mkv
Format : Matroska
Format version : Version 4 / Version 2
File size : 344 MiB
Duration : 10mn 51s
Overall bit rate : 4 432 Kbps
Encoded date : UTC 2017-08-30 09:05:59
Writing application : mkvmerge v7.6.0 ('Garden of Dreams') 64bit built on Feb 8 2015 13:04:34
Writing library : libebml v1.3.1 + libmatroska v1.4.2
DURATION : 00:10:51.360000000
NUMBER_OF_FRAMES : 20355
NUMBER_OF_BYTES : 15632640
_STATISTICS_WRITING_APP : mkvmerge v7.6.0 ('Garden of Dreams') 64bit built on Feb 8 2015 13:04:34
_STATISTICS_WRITING_DATE_UT : 2017-08-30 09:05:59
_STATISTICS_TAGS : BPS DURATION NUMBER_OF_FRAMES NUMBER_OF_BYTES

Video
ID : 1
Format : AVC
Format/Info : Advanced Video Codec
Format profile : High@L3.1
Format settings, CABAC : No
Format settings, ReFrames : 2 frames
Codec ID : V_MPEG4/ISO/AVC
Duration : 10mn 51s
Bit rate : 4 152 Kbps
Width : 1 280 pixels
Height : 718 pixels
Display aspect ratio : 16:9
Frame rate mode : Constant
Frame rate : 25.000 fps
Color space : YUV
Chroma subsampling : 4:2:0
Bit depth : 8 bits
Scan type : Progressive
Bits/(Pixel*Frame) : 0.181
Stream size : 322 MiB (94%)
Title : H.264
Default : Yes
Forced : No
Color primaries : BT.709
Transfer characteristics : BT.709
Matrix coefficients : BT.709
Color range : Limited

Audio
ID : 2
Format : AC-3
Format/Info : Audio Coding 3
Mode extension : CM (complete main)
Format settings, Endianness : Big
Codec ID : A_AC3
Duration : 10mn 51s
Bit rate mode : Constant
Bit rate : 192 Kbps
Channel(s) : 2 channels
Channel positions : Front: L R
Sampling rate : 48.0 KHz
Bit depth : 16 bits
Compression mode : Lossy
Stream size : 14.9 MiB (4%)
Default : Yes
Forced : No


S01E27 - Poza czasem
Kod:
Tekst widoczny dla zalogowanych.


S01E28 - Feralny kurs
Kod:
Tekst widoczny dla zalogowanych.


S01E29 - Zmiksowani
Kod:
Tekst widoczny dla zalogowanych.


S01E30 - Nieziemskie problemy wychowawcze
Kod:
Tekst widoczny dla zalogowanych.


S01E31 - Mądry Booster po szkodzie
Kod:
Tekst widoczny dla zalogowanych.


S01E32 - Wszystkiego najlepszego, Bizarro!
Kod:
Tekst widoczny dla zalogowanych.


S01E33 - Najlepszy dzień w życiu
Kod:
Tekst widoczny dla zalogowanych.
_____
Obraz
Sygnatura•••
Podziękowania dla autora posta:
Maniek123404, Nillay, yenx
Nie ma w serwisiebodek610Kopiuj nick
bodek610

Płeć:
Dołączył:
Punkty: 674$
Podziękowania: 277
Posty: 413
Dubbing PL / PL
ocenił na: 0
Justice.League.Action.S01E34.Kostka.Niezgody.PLDUB.720p.WEB-DL.AC3.2.0.H.264-YFN

Parametry techniczne odcinka:
Spoiler
General
Unique ID : 224474772380569783693654416444747278579 (0xA8E044C23B0D2C09972D14525269E8F3)
Complete name : C:\filmy\Justice League Action\Justice.League.Action.S01E34.Kostka.Niezgody.PLDUB.720p.WEB-DL.AC3.2.0.H.264-YFN.mkv
Format : Matroska
Format version : Version 4 / Version 2
File size : 345 MiB
Duration : 10mn 50s
Overall bit rate : 4 452 Kbps
Encoded date : UTC 2017-09-04 05:12:42
Writing application : mkvmerge v7.6.0 ('Garden of Dreams') 64bit built on Feb 8 2015 13:04:34
Writing library : libebml v1.3.1 + libmatroska v1.4.2
DURATION : 00:10:50.304000000
NUMBER_OF_FRAMES : 20322
NUMBER_OF_BYTES : 15607296
_STATISTICS_WRITING_APP : mkvmerge v7.6.0 ('Garden of Dreams') 64bit built on Feb 8 2015 13:04:34
_STATISTICS_WRITING_DATE_UTC : 2017-09-04 05:12:42
_STATISTICS_TAGS : BPS DURATION NUMBER_OF_FRAMES NUMBER_OF_BYTES

Video
ID : 1
Format : AVC
Format/Info : Advanced Video Codec
Format profile : High@L3.1
Format settings, CABAC : No
Format settings, ReFrames : 2 frames
Codec ID : V_MPEG4/ISO/AVC
Duration : 10mn 50s
Bit rate : 4 172 Kbps
Width : 1 280 pixels
Height : 718 pixels
Display aspect ratio : 16:9
Frame rate mode : Constant
Frame rate : 25.000 fps
Color space : YUV
Chroma subsampling : 4:2:0
Bit depth : 8 bits
Scan type : Progressive
Bits/(Pixel*Frame) : 0.182
Stream size : 323 MiB (94%)
Title : H.264
Default : Yes
Forced : No
Color primaries : BT.709
Transfer characteristics : BT.709
Matrix coefficients : BT.709

Audio
ID : 2
Format : AC-3
Format/Info : Audio Coding 3
Mode extension : CM (complete main)
Format settings, Endianness : Big
Codec ID : A_AC3
Duration : 10mn 50s
Bit rate mode : Constant
Bit rate : 192 Kbps
Channel(s) : 2 channels
Channel positions : Front: L R
Sampling rate : 48.0 KHz
Bit depth : 16 bits
Compression mode : Lossy
Stream size : 14.9 MiB (4%)
Default : Yes
Forced : No



Kod:
Tekst widoczny dla zalogowanych.
_____
Obraz
Sygnatura•••
Podziękowania dla autora posta:
Maniek123404, Nillay, yenx
Nie ma w serwisiebodek610Kopiuj nick
bodek610

Płeć:
Dołączył:
Punkty: 674$
Podziękowania: 277
Posty: 413
Dubbing PL / PL
ocenił na: 0
Justice.League.Action.S01E35.Sid.Sharp.Kumpel.Supermana.PLDUB.720p.WEB-DL.AC3.2.0.H.264-YFN

Parametry techniczne odcinka:
Spoiler
General
Unique ID : 184066956226945781097869615203757151510 (0x8A7A019B5E1057C9BFCDCEF55B3D5516)
Complete name : C:\filmy\Justice League Action\Justice.League.Action.S01E35.Sid.Sharp.Kumpel.Supermana.PLDUB.720p.WEB-DL.AC3.2.0.H.264-YFN.mkv
Format : Matroska
Format version : Version 4 / Version 2
File size : 341 MiB
Duration : 10mn 51s
Overall bit rate : 4 395 Kbps
Encoded date : UTC 2017-09-11 04:51:02
Writing application : mkvmerge v7.6.0 ('Garden of Dreams') 64bit built on Feb 8 2015 13:04:34
Writing library : libebml v1.3.1 + libmatroska v1.4.2
DURATION : 00:10:51.360000000
NUMBER_OF_FRAMES : 20355
NUMBER_OF_BYTES : 15632640
_STATISTICS_WRITING_APP : mkvmerge v7.6.0 ('Garden of Dreams') 64bit built on Feb 8 2015 13:04:34
_STATISTICS_WRITING_DATE_UTC : 2017-09-11 04:51:02
_STATISTICS_TAGS : BPS DURATION NUMBER_OF_FRAMES NUMBER_OF_BYTES

Video
ID : 1
Format : AVC
Format/Info : Advanced Video Codec
Format profile : High@L3.1
Format settings, CABAC : No
Format settings, ReFrames : 2 frames
Codec ID : V_MPEG4/ISO/AVC
Duration : 10mn 51s
Bit rate : 4 116 Kbps
Width : 1 280 pixels
Height : 718 pixels
Display aspect ratio : 16:9
Frame rate mode : Constant
Frame rate : 25.000 fps
Color space : YUV
Chroma subsampling : 4:2:0
Bit depth : 8 bits
Scan type : Progressive
Bits/(Pixel*Frame) : 0.179
Stream size : 320 MiB (94%)
Title : H.264
Default : Yes
Forced : No
Color primaries : BT.709
Transfer characteristics : BT.709
Matrix coefficients : BT.709

Audio
ID : 2
Format : AC-3
Format/Info : Audio Coding 3
Mode extension : CM (complete main)
Format settings, Endianness : Big
Codec ID : A_AC3
Duration : 10mn 51s
Bit rate mode : Constant
Bit rate : 192 Kbps
Channel(s) : 2 channels
Channel positions : Front: L R
Sampling rate : 48.0 KHz
Bit depth : 16 bits
Compression mode : Lossy
Stream size : 14.9 MiB (4%)
Default : Yes
Forced : No



Kod:
Tekst widoczny dla zalogowanych.
_____
Obraz
Sygnatura•••
Podziękowania dla autora posta:
Maniek123404, yenx, Nillay
Nie ma w serwisiebodek610Kopiuj nick
bodek610

Płeć:
Dołączył:
Punkty: 674$
Podziękowania: 277
Posty: 413
Dubbing PL / PL
ocenił na: 0
Justice.League.Action.S01E36.Superman.Czerwony.kontra.Superman.Niebieski.PLDUB.720p.WEB-DL.AC3.2.0.H.264-YFN

Parametry techniczne odcinka:
Spoiler
General
Unique ID : 250984726962713977540742051632942338633 (0xBCD1E66E8908262BA6228039C316D249)
Complete name : C:\filmy\Justice League Action\Justice.League.Action.S01E36.Superman.Czerwony.vs.Superman.Niebieski.PLDUB.720p.WEB-DL.AC3.2.0.H.264-YFN.mkv
Format : Matroska
Format version : Version 4 / Version 2
File size : 340 MiB
Duration : 10mn 45s
Overall bit rate : 4 412 Kbps
Encoded date : UTC 2017-09-17 11:53:50
Writing application : mkvmerge v7.6.0 ('Garden of Dreams') 64bit built on Feb 8 2015 13:04:34
Writing library : libebml v1.3.1 + libmatroska v1.4.2
DURATION : 00:10:45.568000000
NUMBER_OF_FRAMES : 20174
NUMBER_OF_BYTES : 15493632
_STATISTICS_WRITING_APP : mkvmerge v7.6.0 ('Garden of Dreams') 64bit built on Feb 8 2015 13:04:34
_STATISTICS_WRITING_DATE_UTC : 2017-09-17 11:53:50
_STATISTICS_TAGS : BPS DURATION NUMBER_OF_FRAMES NUMBER_OF_BYTES

Video
ID : 1
Format : AVC
Format/Info : Advanced Video Codec
Format profile : High@L3.1
Format settings, CABAC : No
Format settings, ReFrames : 2 frames
Codec ID : V_MPEG4/ISO/AVC
Duration : 10mn 45s
Bit rate : 4 132 Kbps
Width : 1 280 pixels
Height : 718 pixels
Display aspect ratio : 16:9
Frame rate mode : Constant
Frame rate : 25.000 fps
Color space : YUV
Chroma subsampling : 4:2:0
Bit depth : 8 bits
Scan type : Progressive
Bits/(Pixel*Frame) : 0.180
Stream size : 318 MiB (94%)
Title : H.264
Default : Yes
Forced : No
Color primaries : BT.709
Transfer characteristics : BT.709
Matrix coefficients : BT.709

Audio
ID : 2
Format : AC-3
Format/Info : Audio Coding 3
Mode extension : CM (complete main)
Format settings, Endianness : Big
Codec ID : A_AC3
Duration : 10mn 45s
Bit rate mode : Constant
Bit rate : 192 Kbps
Channel(s) : 2 channels
Channel positions : Front: L R
Sampling rate : 48.0 KHz
Bit depth : 16 bits
Compression mode : Lossy
Stream size : 14.8 MiB (4%)
Default : Yes
Forced : No


Kod:
Tekst widoczny dla zalogowanych.
_____
Obraz
Sygnatura•••
Podziękowania dla autora posta:
Maniek123404, Nillay, yenx
Nie ma w serwisiebodek610Kopiuj nick
bodek610

Płeć:
Dołączył:
Punkty: 674$
Podziękowania: 277
Posty: 413
Dubbing PL / PL
ocenił na: 0
Justice.League.Action.S01E37.W.Pierścieniu.Lęku.PLDUB.720p.WEB-DL.AC3.2.0.H.264-YFN


Parametry techniczne odcinka:
Spoiler
General
Unique ID : 240463986864094687640098705638580803861 (0xB4E7ADE59C510B49BBF5EE84E44FD915)
Complete name : C:\filmy\Justice League Action\Justice.League.Action.S01E37.W.Pierścieniu.Lęku.PLDUB.720p.WEB-DL.AC3.2.0.H.264-YFN.mkv
Format : Matroska
Format version : Version 4 / Version 2
File size : 332 MiB
Duration : 10mn 28s
Overall bit rate : 4 427 Kbps
Encoded date : UTC 2017-09-24 14:40:09
Writing application : mkvmerge v7.6.0 ('Garden of Dreams') 64bit built on Feb 8 2015 13:04:34
Writing library : libebml v1.3.1 + libmatroska v1.4.2
DURATION : 00:10:28.480000000
NUMBER_OF_FRAMES : 19640
NUMBER_OF_BYTES : 15083520
_STATISTICS_WRITING_APP : mkvmerge v7.6.0 ('Garden of Dreams') 64bit built on Feb 8 2015 13:04:34
_STATISTICS_WRITING_DATE_UTC : 2017-09-24 14:40:09
_STATISTICS_TAGS : BPS DURATION NUMBER_OF_FRAMES NUMBER_OF_BYTES

Video
ID : 1
Format : AVC
Format/Info : Advanced Video Codec
Format profile : High@L3.1
Format settings, CABAC : No
Format settings, ReFrames : 2 frames
Codec ID : V_MPEG4/ISO/AVC
Duration : 10mn 28s
Bit rate : 4 147 Kbps
Width : 1 280 pixels
Height : 718 pixels
Display aspect ratio : 16:9
Frame rate mode : Constant
Frame rate : 25.000 fps
Color space : YUV
Chroma subsampling : 4:2:0
Bit depth : 8 bits
Scan type : Progressive
Bits/(Pixel*Frame) : 0.180
Stream size : 311 MiB (94%)
Title : H.264
Default : Yes
Forced : No
Color primaries : BT.709
Transfer characteristics : BT.709
Matrix coefficients : BT.709

Audio
ID : 2
Format : AC-3
Format/Info : Audio Coding 3
Mode extension : CM (complete main)
Format settings, Endianness : Big
Codec ID : A_AC3
Duration : 10mn 28s
Bit rate mode : Constant
Bit rate : 192 Kbps
Channel(s) : 2 channels
Channel positions : Front: L R
Sampling rate : 48.0 KHz
Bit depth : 16 bits
Compression mode : Lossy
Stream size : 14.4 MiB (4%)
Default : Yes
Forced : No



Kod:
Tekst widoczny dla zalogowanych.
_____
Obraz
Sygnatura•••
Podziękowania dla autora posta:
yenx, Maniek123404, Nillay
Nie ma w serwisiebodek610Kopiuj nick
bodek610

Płeć:
Dołączył:
Punkty: 674$
Podziękowania: 277
Posty: 413
Dubbing PL / PL
ocenił na: 0
Justice.League.Action.S01E38.Czy.Mnie.Jeszcze.Pamiętasz?.PLDUB.720p.WEB-DL.AC3.2.0.H.264-YFN

Parametry techniczne odcinka:
Spoiler
General
Unique ID : 242864584555035156492529526175831704216 (0xB6B604804A96909F8538ACE3B2684298)
Complete name : C:\filmy\Justice League Action\Justice.League.Action.S01E38.Czy.Mnie.Jeszcze.Pamiętasz.PLDUB.720p.WEB-DL.AC3.2.0.H.264-YFN.mkv
Format : Matroska
Format version : Version 4 / Version 2
File size : 349 MiB
Duration : 10mn 49s
Overall bit rate : 4 503 Kbps
Encoded date : UTC 2017-10-01 09:35:52
Writing application : mkvmerge v7.6.0 ('Garden of Dreams') 64bit built on Feb 8 2015 13:04:34
Writing library : libebml v1.3.1 + libmatroska v1.4.2
DURATION : 00:10:49.952000000
NUMBER_OF_FRAMES : 20311
NUMBER_OF_BYTES : 15598848
_STATISTICS_WRITING_APP : mkvmerge v7.6.0 ('Garden of Dreams') 64bit built on Feb 8 2015 13:04:34
_STATISTICS_WRITING_DATE_UTC : 2017-10-01 09:35:52
_STATISTICS_TAGS : BPS DURATION NUMBER_OF_FRAMES NUMBER_OF_BYTES

Video
ID : 1
Format : AVC
Format/Info : Advanced Video Codec
Format profile : High@L3.1
Format settings, CABAC : No
Format settings, ReFrames : 2 frames
Codec ID : V_MPEG4/ISO/AVC
Duration : 10mn 49s
Bit rate : 4 221 Kbps
Width : 1 280 pixels
Height : 718 pixels
Display aspect ratio : 16:9
Frame rate mode : Constant
Frame rate : 25.000 fps
Color space : YUV
Chroma subsampling : 4:2:0
Bit depth : 8 bits
Scan type : Progressive
Bits/(Pixel*Frame) : 0.184
Stream size : 327 MiB (94%)
Title : H.264
Default : Yes
Forced : No
Color primaries : BT.709
Transfer characteristics : BT.709
Matrix coefficients : BT.709

Audio
ID : 2
Format : AC-3
Format/Info : Audio Coding 3
Mode extension : CM (complete main)
Format settings, Endianness : Big
Codec ID : A_AC3
Duration : 10mn 49s
Bit rate mode : Constant
Bit rate : 192 Kbps
Channel(s) : 2 channels
Channel positions : Front: L R
Sampling rate : 48.0 KHz
Bit depth : 16 bits
Compression mode : Lossy
Stream size : 14.9 MiB (4%)
Default : Yes
Forced : No



Kod:
Tekst widoczny dla zalogowanych.


Kod:
Tekst widoczny dla zalogowanych.
_____
Obraz
Sygnatura•••
Podziękowania dla autora posta:
yenx, Maniek123404
Nie ma w serwisiebodek610Kopiuj nick
bodek610

Płeć:
Dołączył:
Punkty: 674$
Podziękowania: 277
Posty: 413
Dubbing PL / PL
ocenił na: 0
Justice.League.Action.S01E42.Zdematerializowani.PLDUB.720p.WEB-DL.AC3.2.0.H.264-YFN

Parametry techniczne odcinka:
Spoiler
General
Unique ID : 186272789008248730433040931780140335141 (0x8C22D58F480C10B6825E0EAA23AE0025)
Complete name : C:\filmy\Justice League Action\Justice.League.Action.S01E42.Zdematerializowani.PLDUB.720p.WEB-DL.AC3.2.0.H.264-YFN.mkv
Format : Matroska
Format version : Version 4 / Version 2
File size : 341 MiB
Duration : 10mn 47s
Overall bit rate : 4 419 Kbps
Encoded date : UTC 2017-10-29 12:53:15
Writing application : mkvmerge v7.6.0 ('Garden of Dreams') 64bit built on Feb 8 2015 13:04:34
Writing library : libebml v1.3.1 + libmatroska v1.4.2
DURATION : 00:10:47.168000000
NUMBER_OF_FRAMES : 20224
NUMBER_OF_BYTES : 15532032
_STATISTICS_WRITING_APP : mkvmerge v7.6.0 ('Garden of Dreams') 64bit built on Feb 8 2015 13:04:34
_STATISTICS_WRITING_DATE_UTC : 2017-10-29 12:53:15
_STATISTICS_TAGS : BPS DURATION NUMBER_OF_FRAMES NUMBER_OF_BYTES

Video
ID : 1
Format : AVC
Format/Info : Advanced Video Codec
Format profile : High@L3.1
Format settings, CABAC : No
Format settings, ReFrames : 2 frames
Codec ID : V_MPEG4/ISO/AVC
Duration : 10mn 47s
Bit rate : 4 139 Kbps
Width : 1 280 pixels
Height : 718 pixels
Display aspect ratio : 16:9
Frame rate mode : Constant
Frame rate : 25.000 fps
Color space : YUV
Chroma subsampling : 4:2:0
Bit depth : 8 bits
Scan type : Progressive
Bits/(Pixel*Frame) : 0.180
Stream size : 319 MiB (94%)
Title : H.264
Default : Yes
Forced : No
Color primaries : BT.709
Transfer characteristics : BT.709
Matrix coefficients : BT.709

Audio
ID : 2
Format : AC-3
Format/Info : Audio Coding 3
Mode extension : CM (complete main)
Format settings, Endianness : Big
Codec ID : A_AC3
Duration : 10mn 47s
Bit rate mode : Constant
Bit rate : 192 Kbps
Channel(s) : 2 channels
Channel positions : Front: L R
Sampling rate : 48.0 KHz
Bit depth : 16 bits
Compression mode : Lossy
Stream size : 14.8 MiB (4%)
Default : Yes
Forced : No




Kod:
Tekst widoczny dla zalogowanych.


Kod:
Tekst widoczny dla zalogowanych.
_____
Obraz
Sygnatura•••
Podziękowania dla autora posta:
Maniek123404, yenx