Zaloguj
Liga Sprawiedliwych: Akcja

Justice League Action
Kreskówka, 2016
10,00  głosy: 5Oceń:
Ulubiony
Do obejrzenia
Obejrzany
Premiera:
4 grudnia 2016Polska27 listopada 2016
Produkcja:

Dodaj sezon
Nie ma w serwisiebodek610Kopiuj nick
bodek610

Płeć:
Dołączył:
Punkty: 674$
Podziękowania: 277
Posty: 413
Dubbing PL / PL
ocenił na: 0
Justice.League.Action.S01E15.Bestia.z.Kapelusza.PLDUB.720p.WEB-DL.AC32.0.H.264-YFN

Parametry techniczne:
Spoiler
General
Unique ID : 193300332294756295350117729192319905916 (0x916C4A31D1284F62ACA9E4FAE903F07C)
Complete name : C:\filmy\Justice League Action\Justice.League.Action.S01E15.Bestia.z.Kapelusza.PLDUB.720p.WEB-DL.DD5.1.AAC2.0.H.264-YFN.mkv
Format : Matroska
Format version : Version 4 / Version 2
File size : 332 MiB
Duration : 10mn 29s
Overall bit rate : 4 420 Kbps
Encoded date : UTC 2017-04-10 14:11:20
Writing application : mkvmerge v7.6.0 ('Garden of Dreams') 64bit built on Feb 8 2015 13:04:34
Writing library : libebml v1.3.1 + libmatroska v1.4.2
DURATION : 00:10:29.536000000
NUMBER_OF_FRAMES : 19673
NUMBER_OF_BYTES : 15108864
_STATISTICS_WRITING_APP : mkvmerge v7.6.0 ('Garden of Dreams') 64bit built on Feb 8 2015 13:04:34
_STATISTICS_WRITING_DATE_UTC : 2017-04-10 14:11:20
_STATISTICS_TAGS : BPS DURATION NUMBER_OF_FRAMES NUMBER_OF_BYTES

Video
ID : 1
Format : AVC
Format/Info : Advanced Video Codec
Format profile : High@L3.1
Format settings, CABAC : No
Format settings, ReFrames : 2 frames
Codec ID : V_MPEG4/ISO/AVC
Duration : 10mn 29s
Bit rate : 4 140 Kbps
Width : 1 280 pixels
Height : 718 pixels
Display aspect ratio : 16:9
Frame rate mode : Constant
Frame rate : 25.000 fps
Color space : YUV
Chroma subsampling : 4:2:0
Bit depth : 8 bits
Scan type : Progressive
Bits/(Pixel*Frame) : 0.180
Stream size : 311 MiB (94%)
Title : H.264
Default : Yes
Forced : No
Color primaries : BT.709
Transfer characteristics : BT.709
Matrix coefficients : BT.709

Audio
ID : 2
Format : AC-3
Format/Info : Audio Coding 3
Mode extension : CM (complete main)
Format settings, Endianness : Big
Codec ID : A_AC3
Duration : 10mn 29s
Bit rate mode : Constant
Bit rate : 192 Kbps
Channel(s) : 2 channels
Channel positions : Front: L R
Sampling rate : 48.0 KHz
Bit depth : 16 bits
Compression mode : Lossy
Stream size : 14.4 MiB (4%)
Default : Yes
Forced : No



Kod:
Tekst widoczny dla zalogowanych.
_____
Obraz
Sygnatura•••
Podziękowania dla autora posta:
yenx
Nie ma w serwisiebodek610Kopiuj nick
bodek610

Płeć:
Dołączył:
Punkty: 674$
Podziękowania: 277
Posty: 413
Dubbing PL / PL
ocenił na: 0
Justice.League.Action.S01E01E02E03E04.Magia drąży skałę; Suma wszystkich mocy; Noc nietoperza; Zamaskowany, Zamaskowana.PLDUB.720p.WEB-DL.AC3.2.0.H.264-YFN

Parametry techniczne odcinka:
Spoiler
General
Unique ID : 220090605089257906594656930559794052331 (0xA593E89F61B2DD8A9DAC1395E3E77CEB)
Complete name : C:\filmy\Justice League Action\Justice.League.Action.S01E01E02E03E04.Magia drąży skałę; Suma wszystkich mocy; Noc nietoperza; Zamaskowany, Zamaskowana.PLDUB.720p.WEB-DL.AC3.2.0.H.264-YFN.mkv
Format : Matroska
Format version : Version 4 / Version 2
File size : 1.27 GiB
Duration : 41mn 39s
Overall bit rate : 4 357 Kbps
Encoded date : UTC 2017-04-25 17:18:25
Writing application : mkvmerge v7.6.0 ('Garden of Dreams') 64bit built on Feb 8 2015 13:04:34
Writing library : libebml v1.3.1 + libmatroska v1.4.2
DURATION : 00:41:39.360000000
NUMBER_OF_FRAMES : 78105
NUMBER_OF_BYTES : 59984640
_STATISTICS_WRITING_APP : mkvmerge v7.6.0 ('Garden of Dreams') 64bit built on Feb 8 2015 13:04:34
_STATISTICS_WRITING_DATE_UTC : 2017-04-25 17:18:25
_STATISTICS_TAGS : BPS DURATION NUMBER_OF_FRAMES NUMBER_OF_BYTES

Video
ID : 1
Format : AVC
Format/Info : Advanced Video Codec
Format profile : High@L3.1
Format settings, CABAC : No
Format settings, ReFrames : 2 frames
Codec ID : V_MPEG4/ISO/AVC
Duration : 41mn 39s
Bit rate : 4 078 Kbps
Width : 1 280 pixels
Height : 716 pixels
Display aspect ratio : 16:9
Frame rate mode : Constant
Frame rate : 25.000 fps
Color space : YUV
Chroma subsampling : 4:2:0
Bit depth : 8 bits
Scan type : Progressive
Bits/(Pixel*Frame) : 0.178
Stream size : 1.19 GiB (94%)
Title : H.264
Default : Yes
Forced : No
Color primaries : BT.709
Transfer characteristics : BT.709
Matrix coefficients : BT.709

Audio
ID : 2
Format : AC-3
Format/Info : Audio Coding 3
Mode extension : CM (complete main)
Format settings, Endianness : Big
Codec ID : A_AC3
Duration : 41mn 39s
Bit rate mode : Constant
Bit rate : 192 Kbps
Channel(s) : 2 channels
Channel positions : Front: L R
Sampling rate : 48.0 KHz
Bit depth : 16 bits
Compression mode : Lossy
Stream size : 57.2 MiB (4%)
Default : Yes
Forced : No


Kod:
Tekst widoczny dla zalogowanych.


Kod:
Tekst widoczny dla zalogowanych.
_____
Obraz
Sygnatura•••
Podziękowania dla autora posta:
Shirya, Nillay, yenx
Nie ma w serwisiebodek610Kopiuj nick
bodek610

Płeć:
Dołączył:
Punkty: 674$
Podziękowania: 277
Posty: 413
Dubbing PL / PL
ocenił na: 0
Justice.League.Action.S01E18.Wycieczka.Terenowa.PLDUB.720p.WEB-DL.AC3.2.0.H.264-YFN

Parametry techniczne odcinka:
Spoiler
General
Unique ID : 202445062501715558789363155277336837201 (0x984D803433B90C96A7EFC16B52EC7C51)
Complete name : C:\filmy\Justice League Action\Justice.League.Action.S01E18.Wycieczka.Terenowa.PLDUB.720p.WEB-DL.AC3.2.0.H.264-YFN.mkv
Format : Matroska
Format version : Version 4 / Version 2
File size : 332 MiB
Duration : 10mn 29s
Overall bit rate : 4 430 Kbps
Encoded date : UTC 2017-04-30 13:47:22
Writing application : mkvmerge v7.6.0 ('Garden of Dreams') 64bit built on Feb 8 2015 13:04:34
Writing library : libebml v1.3.1 + libmatroska v1.4.2
DURATION : 00:10:29.664000000
NUMBER_OF_FRAMES : 19677
NUMBER_OF_BYTES : 15111936
_STATISTICS_WRITING_APP : mkvmerge v7.6.0 ('Garden of Dreams') 64bit built on Feb 8 2015 13:04:34
_STATISTICS_WRITING_DATE_UTC : 2017-04-30 13:47:22
_STATISTICS_TAGS : BPS DURATION NUMBER_OF_FRAMES NUMBER_OF_BYTES

Video
ID : 1
Format : AVC
Format/Info : Advanced Video Codec
Format profile : High@L3.1
Format settings, CABAC : No
Format settings, ReFrames : 2 frames
Codec ID : V_MPEG4/ISO/AVC
Duration : 10mn 29s
Bit rate : 4 150 Kbps
Width : 1 280 pixels
Height : 718 pixels
Display aspect ratio : 16:9
Frame rate mode : Constant
Frame rate : 25.000 fps
Color space : YUV
Chroma subsampling : 4:2:0
Bit depth : 8 bits
Scan type : Progressive
Bits/(Pixel*Frame) : 0.181
Stream size : 311 MiB (94%)
Title : H.264
Default : Yes
Forced : No
Color primaries : BT.709
Transfer characteristics : BT.709
Matrix coefficients : BT.709

Audio
ID : 2
Format : AC-3
Format/Info : Audio Coding 3
Mode extension : CM (complete main)
Format settings, Endianness : Big
Codec ID : A_AC3
Duration : 10mn 29s
Bit rate mode : Constant
Bit rate : 192 Kbps
Channel(s) : 2 channels
Channel positions : Front: L R
Sampling rate : 48.0 KHz
Bit depth : 16 bits
Compression mode : Lossy
Stream size : 14.4 MiB (4%)
Default : Yes
Forced : No


Kod:
Tekst widoczny dla zalogowanych.
_____
Obraz
Sygnatura•••
Podziękowania dla autora posta:
yenx
Nie ma w serwisiebodek610Kopiuj nick
bodek610

Płeć:
Dołączył:
Punkty: 674$
Podziękowania: 277
Posty: 413
Dubbing PL / PL
ocenił na: 0
Justice.League.Action.S01E16.Luthor.Wśrod.Nieśmiertelnych.PLDUB.720p.WEB-DL.AC3.2.0.H.264-YFN

Parametry techniczne odcinka:
Spoiler
General
Unique ID : 196457894119169355641192136985315894522 (0x93CC6A0315245C65A1D91720703BE4FA)
Complete name : C:\filmy\Justice League Action\Justice.League.Action.S01E16.Luthor.Wśrod.Nieśmiertelnych.PLDUB.720p.WEB-DL.AC3.2.0.H.264-YFN.mkv
Format : Matroska
Format version : Version 4 / Version 2
File size : 344 MiB
Duration : 10mn 52s
Overall bit rate : 4 424 Kbps
Encoded date : UTC 2017-05-21 12:52:01
Writing application : mkvmerge v7.6.0 ('Garden of Dreams') 64bit built on Feb 8 2015 13:04:34
Writing library : libebml v1.3.1 + libmatroska v1.4.2
DURATION : 00:10:52.192000000
NUMBER_OF_FRAMES : 20381
NUMBER_OF_BYTES : 15652608
_STATISTICS_WRITING_APP : mkvmerge v7.6.0 ('Garden of Dreams') 64bit built on Feb 8 2015 13:04:34
_STATISTICS_WRITING_DATE_UTC : 2017-05-21 12:52:01
_STATISTICS_TAGS : BPS DURATION NUMBER_OF_FRAMES NUMBER_OF_BYTES

Video
ID : 1
Format : AVC
Format/Info : Advanced Video Codec
Format profile : High@L3.1
Format settings, CABAC : No
Format settings, ReFrames : 2 frames
Codec ID : V_MPEG4/ISO/AVC
Duration : 10mn 52s
Bit rate : 4 144 Kbps
Width : 1 280 pixels
Height : 718 pixels
Display aspect ratio : 16:9
Frame rate mode : Constant
Frame rate : 25.000 fps
Color space : YUV
Chroma subsampling : 4:2:0
Bit depth : 8 bits
Scan type : Progressive
Bits/(Pixel*Frame) : 0.180
Stream size : 322 MiB (94%)
Title : H.264
Default : Yes
Forced : No
Color primaries : BT.709
Transfer characteristics : BT.709
Matrix coefficients : BT.709

Audio
ID : 2
Format : AC-3
Format/Info : Audio Coding 3
Mode extension : CM (complete main)
Format settings, Endianness : Big
Codec ID : A_AC3
Duration : 10mn 52s
Bit rate mode : Constant
Bit rate : 192 Kbps
Channel(s) : 2 channels
Channel positions : Front: L R
Sampling rate : 48.0 KHz
Bit depth : 16 bits
Compression mode : Lossy
Stream size : 14.9 MiB (4%)
Default : Yes
Forced : No


Kod:
Tekst widoczny dla zalogowanych.


Kod:
Tekst widoczny dla zalogowanych.
_____
Obraz
Sygnatura•••
Podziękowania dla autora posta:
yenx
Nie ma w serwisiebodek610Kopiuj nick
bodek610

Płeć:
Dołączył:
Punkty: 674$
Podziękowania: 277
Posty: 413
Dubbing PL / PL
ocenił na: 0
Justice.League.Action.S01E17.Plastic.Man.Ratuje.Świat.PLDUB.720p.WEB-DL.AC3.2.0.H.264-YFN

Parametry techniczne odcinka:
Spoiler
General
Unique ID : 229799517122179153095168646364486892314 (0xACE1C6F18AAA1F8EB97F1DAE26A2FB1A)
Complete name : D:\Justice.League.Action.S01E17.Plastic.Man.Ratuje.Świat.PLDUB.720p.WEB-DL.AC3.2.0.H.264-YFN.mkv
Format : Matroska
Format version : Version 4 / Version 2
File size : 340 MiB
Duration : 10mn 46s
Overall bit rate : 4 403 Kbps
Encoded date : UTC 2017-05-22 18:41:12
Writing application : mkvmerge v8.6.1 ('Flying') 32bit
Writing library : libebml v1.3.3 + libmatroska v1.4.4
DURATION : 00:10:46.976000000
NUMBER_OF_FRAMES : 20218
NUMBER_OF_BYTES : 15527424
_STATISTICS_WRITING_APP : mkvmerge v8.6.1 ('Flying') 32bit
_STATISTICS_WRITING_DATE_UT : 2017-05-22 18:41:12
_STATISTICS_TAGS : BPS DURATION NUMBER_OF_FRAMES NUMBER_OF_BYTES

Video
ID : 1
Format : AVC
Format/Info : Advanced Video Codec
Format profile : High@L3.1
Format settings, CABAC : No
Format settings, ReFrames : 2 frames
Codec ID : V_MPEG4/ISO/AVC
Duration : 10mn 46s
Bit rate : 4 124 Kbps
Width : 1 280 pixels
Height : 718 pixels
Display aspect ratio : 16:9
Frame rate mode : Constant
Frame rate : 25.000 fps
Color space : YUV
Chroma subsampling : 4:2:0
Bit depth : 8 bits
Scan type : Progressive
Bits/(Pixel*Frame) : 0.179
Stream size : 318 MiB (94%)
Title : H.264
Default : Yes
Forced : No
Color primaries : BT.709
Transfer characteristics : BT.709
Matrix coefficients : BT.709
Color range : Limited

Audio
ID : 2
Format : AC-3
Format/Info : Audio Coding 3
Mode extension : CM (complete main)
Format settings, Endianness : Big
Codec ID : A_AC3
Duration : 10mn 46s
Bit rate mode : Constant
Bit rate : 192 Kbps
Channel(s) : 2 channels
Channel positions : Front: L R
Sampling rate : 48.0 KHz
Bit depth : 16 bits
Compression mode : Lossy
Stream size : 14.8 MiB (4%)
Default : Yes
Forced : No


Kod:
Tekst widoczny dla zalogowanych.
_____
Obraz
Sygnatura•••
Podziękowania dla autora posta:
yenx
Nie ma w serwisiebodek610Kopiuj nick
bodek610

Płeć:
Dołączył:
Punkty: 674$
Podziękowania: 277
Posty: 413
Dubbing PL / PL
ocenił na: 0
Justice.League.Action.S01E19.Czerwone.Latarnie.Wpadają.w.Szał.PLDUB.720p.WEB-DL.AC3.2.0.H.264-YFN

Parametry techniczne odcinka:
Spoiler
General
Unique ID : 237184379907795048957757410018428626674 (0xB2700CCA36ABF034AB6317A24B96A6F2)
Complete name : C:\filmy\Justice League Action\Justice.League.Action.S01E19.Czerwone.Latarnie.Wpadają.w.Szał.PLDUB.720p.WEB-DL.AC3.2.0.H.264-YFN.mkv
Format : Matroska
Format version : Version 4 / Version 2
File size : 340 MiB
Duration : 10mn 46s
Overall bit rate : 4 406 Kbps
Encoded date : UTC 2017-05-23 18:19:32
Writing application : mkvmerge v8.6.1 ('Flying') 32bit
Writing library : libebml v1.3.3 + libmatroska v1.4.4
DURATION : 00:10:46.976000000
NUMBER_OF_FRAMES : 20218
NUMBER_OF_BYTES : 15527424
_STATISTICS_WRITING_APP : mkvmerge v8.6.1 ('Flying') 32bit
_STATISTICS_WRITING_DATE_UTC : 2017-05-23 18:19:32
_STATISTICS_TAGS : BPS DURATION NUMBER_OF_FRAMES NUMBER_OF_BYTES

Video
ID : 1
Format : AVC
Format/Info : Advanced Video Codec
Format profile : High@L3.1
Format settings, CABAC : No
Format settings, ReFrames : 2 frames
Codec ID : V_MPEG4/ISO/AVC
Duration : 10mn 46s
Bit rate : 4 127 Kbps
Width : 1 280 pixels
Height : 714 pixels
Display aspect ratio : 16:9
Frame rate mode : Constant
Frame rate : 25.000 fps
Color space : YUV
Chroma subsampling : 4:2:0
Bit depth : 8 bits
Scan type : Progressive
Bits/(Pixel*Frame) : 0.181
Stream size : 318 MiB (94%)
Title : H.264
Default : Yes
Forced : No
Color primaries : BT.709
Transfer characteristics : BT.709
Matrix coefficients : BT.709

Audio
ID : 2
Format : AC-3
Format/Info : Audio Coding 3
Mode extension : CM (complete main)
Format settings, Endianness : Big
Codec ID : A_AC3
Duration : 10mn 46s
Bit rate mode : Constant
Bit rate : 192 Kbps
Channel(s) : 2 channels
Channel positions : Front: L R
Sampling rate : 48.0 KHz
Bit depth : 16 bits
Compression mode : Lossy
Stream size : 14.8 MiB (4%)
Default : Yes
Forced : No



Kod:
Tekst widoczny dla zalogowanych.
_____
Obraz
Sygnatura•••
Podziękowania dla autora posta:
yenx
Nie ma w serwisiebodek610Kopiuj nick
bodek610

Płeć:
Dołączył:
Punkty: 674$
Podziękowania: 277
Posty: 413
Dubbing PL / PL
ocenił na: 0
Justice.League.Action.S01E20.Ciepło.-.Zimno.PLDUB.720p.WEB-DL.AC3.2.0.H.264-YFN

Parametry techniczne odcinka:
Spoiler
General
Unique ID : 204436218043319688518622600061045207639 (0x99CCFBC068E9823FB333EC590D147257)
Complete name : C:\filmy\Justice League Action\Justice.League.Action.S01E20.Ciepło.-.Zimno.PLDUB.720p.WEB-DL.AC3.2.0.H.264-YFN.mkv
Format : Matroska
Format version : Version 4 / Version 2
File size : 336 MiB
Duration : 10mn 39s
Overall bit rate : 4 413 Kbps
Encoded date : UTC 2017-05-28 10:46:15
Writing application : mkvmerge v8.6.1 ('Flying') 32bit
Writing library : libebml v1.3.3 + libmatroska v1.4.4
DURATION : 00:10:39.616000000
NUMBER_OF_FRAMES : 19988
NUMBER_OF_BYTES : 15350784
_STATISTICS_WRITING_APP : mkvmerge v8.6.1 ('Flying') 32bit
_STATISTICS_WRITING_DATE_UTC : 2017-05-28 10:46:15
_STATISTICS_TAGS : BPS DURATION NUMBER_OF_FRAMES NUMBER_OF_BYTES

Video
ID : 1
Format : AVC
Format/Info : Advanced Video Codec
Format profile : High@L3.1
Format settings, CABAC : No
Format settings, ReFrames : 2 frames
Codec ID : V_MPEG4/ISO/AVC
Duration : 10mn 39s
Bit rate : 4 133 Kbps
Width : 1 280 pixels
Height : 718 pixels
Display aspect ratio : 16:9
Frame rate mode : Constant
Frame rate : 25.000 fps
Color space : YUV
Chroma subsampling : 4:2:0
Bit depth : 8 bits
Scan type : Progressive
Bits/(Pixel*Frame) : 0.180
Stream size : 315 MiB (94%)
Title : H.264
Default : Yes
Forced : No
Color primaries : BT.709
Transfer characteristics : BT.709
Matrix coefficients : BT.709

Audio
ID : 2
Format : AC-3
Format/Info : Audio Coding 3
Mode extension : CM (complete main)
Format settings, Endianness : Big
Codec ID : A_AC3
Duration : 10mn 39s
Bit rate mode : Constant
Bit rate : 192 Kbps
Channel(s) : 2 channels
Channel positions : Front: L R
Sampling rate : 48.0 KHz
Bit depth : 16 bits
Compression mode : Lossy
Stream size : 14.6 MiB (4%)
Default : Yes
Forced : No


Kod:
Tekst widoczny dla zalogowanych.
_____
Obraz
Sygnatura•••
Podziękowania dla autora posta:
yenx
Nie ma w serwisiebodek610Kopiuj nick
bodek610

Płeć:
Dołączył:
Punkty: 674$
Podziękowania: 277
Posty: 413
Dubbing PL / PL
ocenił na: 0
Justice.League.Action.S01E21-22.Kłopoty.z.Prawdą;Sprawy.Wewnętrzne.PLDUB.720p.WEB-DL.AC3.2.0.H.264-YFN

Parametry techniczne odcinka:
Spoiler
General
Unique ID : 200335525952884755086821938923221296946 (0x96B738059E302F5B820FD30C4B242732)
Complete name : C:\filmy\Justice League Action\Justice.League.Action.S01E21.Kłopoty.z.Prawdą.PLDUB.720p.WEB-DL.AC3.2.0.H.264-YFN.mkv
Format : Matroska
Format version : Version 4 / Version 2
File size : 337 MiB
Duration : 10mn 38s
Overall bit rate : 4 427 Kbps
Encoded date : UTC 2017-06-04 14:10:18
Writing application : mkvmerge v7.6.0 ('Garden of Dreams') 64bit built on Feb 8 2015 13:04:34
Writing library : libebml v1.3.1 + libmatroska v1.4.2
DURATION : 00:10:38.240000000
NUMBER_OF_FRAMES : 19945
NUMBER_OF_BYTES : 15317760
_STATISTICS_WRITING_APP : mkvmerge v7.6.0 ('Garden of Dreams') 64bit built on Feb 8 2015 13:04:34
_STATISTICS_WRITING_DATE_UTC : 2017-06-04 14:10:18
_STATISTICS_TAGS : BPS DURATION NUMBER_OF_FRAMES NUMBER_OF_BYTES

Video
ID : 1
Format : AVC
Format/Info : Advanced Video Codec
Format profile : High@L3.1
Format settings, CABAC : No
Format settings, ReFrames : 2 frames
Codec ID : V_MPEG4/ISO/AVC
Duration : 10mn 38s
Bit rate : 4 147 Kbps
Width : 1 280 pixels
Height : 718 pixels
Display aspect ratio : 16:9
Frame rate mode : Constant
Frame rate : 25.000 fps
Color space : YUV
Chroma subsampling : 4:2:0
Bit depth : 8 bits
Scan type : Progressive
Bits/(Pixel*Frame) : 0.181
Stream size : 316 MiB (94%)
Title : H.264
Default : Yes
Forced : No
Color primaries : BT.709
Transfer characteristics : BT.709
Matrix coefficients : BT.709

Audio
ID : 2
Format : AC-3
Format/Info : Audio Coding 3
Mode extension : CM (complete main)
Format settings, Endianness : Big
Codec ID : A_AC3
Duration : 10mn 38s
Bit rate mode : Constant
Bit rate : 192 Kbps
Channel(s) : 2 channels
Channel positions : Front: L R
Sampling rate : 48.0 KHz
Bit depth : 16 bits
Compression mode : Lossy
Stream size : 14.6 MiB (4%)
Default : Yes
Forced : No



Kod:
Tekst widoczny dla zalogowanych.
_____
Obraz
Sygnatura•••
Podziękowania dla autora posta:
yenx
Nie ma w serwisiebodek610Kopiuj nick
bodek610

Płeć:
Dołączył:
Punkty: 674$
Podziękowania: 277
Posty: 413
Dubbing PL / PL
ocenił na: 0
Justice.League.Action.S01E23.Podwójna.Zmyłka.PLDUB.720p.WEB-DL.AC3.2.0.H.264-YFN

Parametry techniczne odcinka:
Spoiler
General
Unique ID : 190206382360247783954815259856972961210 (0x8F186AAF7AF528E7B8821E9B0B8A55BA)
Complete name : C:\filmy\Justice League Action\Justice.League.Action.S01E23.Podwójna.Zmyłka.PLDUB.720p.WEB-DL.AC3.2.0.H.264-YFN.mkv
Format : Matroska
Format version : Version 4 / Version 2
File size : 347 MiB
Duration : 10mn 53s
Overall bit rate : 4 453 Kbps
Encoded date : UTC 2017-06-11 17:07:40
Writing application : mkvmerge v7.6.0 ('Garden of Dreams') 64bit built on Feb 8 2015 13:04:34
Writing library : libebml v1.3.1 + libmatroska v1.4.2
DURATION : 00:10:53.472000000
NUMBER_OF_FRAMES : 20421
NUMBER_OF_BYTES : 15683328
_STATISTICS_WRITING_APP : mkvmerge v7.6.0 ('Garden of Dreams') 64bit built on Feb 8 2015 13:04:34
_STATISTICS_WRITING_DATE_UTC : 2017-06-11 17:07:40
_STATISTICS_TAGS : BPS DURATION NUMBER_OF_FRAMES NUMBER_OF_BYTES

Video
ID : 1
Format : AVC
Format/Info : Advanced Video Codec
Format profile : High@L3.1
Format settings, CABAC : No
Format settings, ReFrames : 2 frames
Codec ID : V_MPEG4/ISO/AVC
Duration : 10mn 53s
Bit rate : 4 173 Kbps
Width : 1 280 pixels
Height : 718 pixels
Display aspect ratio : 16:9
Frame rate mode : Constant
Frame rate : 25.000 fps
Color space : YUV
Chroma subsampling : 4:2:0
Bit depth : 8 bits
Scan type : Progressive
Bits/(Pixel*Frame) : 0.182
Stream size : 325 MiB (94%)
Title : H.264
Default : Yes
Forced : No
Color primaries : BT.709
Transfer characteristics : BT.709
Matrix coefficients : BT.709

Audio
ID : 2
Format : AC-3
Format/Info : Audio Coding 3
Mode extension : CM (complete main)
Format settings, Endianness : Big
Codec ID : A_AC3
Duration : 10mn 53s
Bit rate mode : Constant
Bit rate : 192 Kbps
Channel(s) : 2 channels
Channel positions : Front: L R
Sampling rate : 48.0 KHz
Bit depth : 16 bits
Compression mode : Lossy
Stream size : 15.0 MiB (4%)
Default : Yes
Forced : No



Kod:
Tekst widoczny dla zalogowanych.
_____
Obraz
Sygnatura•••
Podziękowania dla autora posta:
yenx
Nie ma w serwisiebodek610Kopiuj nick
bodek610

Płeć:
Dołączył:
Punkty: 674$
Podziękowania: 277
Posty: 413
Dubbing PL / PL
ocenił na: 0
Justice.League.Action.S01E24.Bitwa.o.Zabutelkowane.Miasto.PLDUB.720p.WEB-DL.AC3.2.0.H.264-YFN

Parametry techniczne odcinka:
Spoiler
General
Unique ID : 235353371455566402103400919598449284242 (0xB10F691A73BBACD28CF815D7278BD492)
Complete name : C:\filmy\Justice League Action\Justice.League.Action.S01E24.Bitwa.o.Zabutelkowane.Miasto.PLDUB.720p.WEB-DL.AC3.2.0.H.264-YFN.mkv
Format : Matroska
Format version : Version 4 / Version 2
File size : 355 MiB
Duration : 11mn 19s
Overall bit rate : 4 385 Kbps
Encoded date : UTC 2017-06-18 18:32:27
Writing application : mkvmerge v8.6.1 ('Flying') 32bit
Writing library : libebml v1.3.3 + libmatroska v1.4.4
DURATION : 00:11:19.488000000
NUMBER_OF_FRAMES : 21234
NUMBER_OF_BYTES : 16307712
_STATISTICS_WRITING_APP : mkvmerge v8.6.1 ('Flying') 32bit
_STATISTICS_WRITING_DATE_UTC : 2017-06-18 18:32:27
_STATISTICS_TAGS : BPS DURATION NUMBER_OF_FRAMES NUMBER_OF_BYTES

Video
ID : 1
Format : AVC
Format/Info : Advanced Video Codec
Format profile : High@L3.1
Format settings, CABAC : No
Format settings, ReFrames : 2 frames
Codec ID : V_MPEG4/ISO/AVC
Duration : 11mn 19s
Bit rate : 4 106 Kbps
Width : 1 280 pixels
Height : 718 pixels
Display aspect ratio : 16:9
Frame rate mode : Constant
Frame rate : 24.979 fps
Color space : YUV
Chroma subsampling : 4:2:0
Bit depth : 8 bits
Scan type : Progressive
Bits/(Pixel*Frame) : 0.179
Stream size : 333 MiB (94%)
Title : H.264
Default : Yes
Forced : No
Color primaries : BT.709
Transfer characteristics : BT.709
Matrix coefficients : BT.709

Audio
ID : 2
Format : AC-3
Format/Info : Audio Coding 3
Mode extension : CM (complete main)
Format settings, Endianness : Big
Codec ID : A_AC3
Duration : 11mn 19s
Bit rate mode : Constant
Bit rate : 192 Kbps
Channel(s) : 2 channels
Channel positions : Front: L R
Sampling rate : 48.0 KHz
Bit depth : 16 bits
Compression mode : Lossy
Stream size : 15.6 MiB (4%)
Default : Yes
Forced : No



Kod:
Tekst widoczny dla zalogowanych.


Kod:
Tekst widoczny dla zalogowanych.
_____
Obraz
Sygnatura•••
Podziękowania dla autora posta:
yenx