Zaloguj
Liga Sprawiedliwych: Akcja

Justice League Action
Kreskówka, 2016
10,00  głosy: 4Oceń:
Ulubiony
Do obejrzenia
Obejrzany
Premiera:
4 grudnia 2016Polska27 listopada 2016
Produkcja:

Dodaj sezon
Nie ma w serwisiebodek610Kopiuj nick
bodek610

Płeć:
Dołączył:
Punkty: 742$
Podziękowania: 255
Posty: 397
Dubbing PL / PL
ocenił na: 0
Justice.League.Action.S01E06.Wartości.Rodziny.Nuklearnej.PLDUB.720p.WEB-DL.AC3.2.0..H.264-YFN

Parametry techniczne:
Spoiler
General
Unique ID : 221766628593315564391807452039309288048 (0xA6D6B2F614368CF698DC1A88AD6DE270)
Complete name : C:\filmy\Justice League Action\Justice.League.Action.S01E06.Wartości.Rodziny.Nuklearnej.PLDUB.720p.WEB-DL.AC3.2.0..H.264-YFN.mkv
Format : Matroska
Format version : Version 4 / Version 2
File size : 343 MiB
Duration : 10mn 52s
Overall bit rate : 4 404 Kbps
Encoded date : UTC 2017-01-29 18:59:55
Writing application : mkvmerge v7.6.0 ('Garden of Dreams') 64bit built on Feb 8 2015 13:04:34
Writing library : libebml v1.3.1 + libmatroska v1.4.2
DURATION : 00:10:52.768000000
NUMBER_OF_FRAMES : 20399
NUMBER_OF_BYTES : 15666432
_STATISTICS_WRITING_APP : mkvmerge v7.6.0 ('Garden of Dreams') 64bit built on Feb 8 2015 13:04:34
_STATISTICS_WRITING_DATE_UTC : 2017-01-29 18:59:55
_STATISTICS_TAGS : BPS DURATION NUMBER_OF_FRAMES NUMBER_OF_BYTES

Video
ID : 1
Format : AVC
Format/Info : Advanced Video Codec
Format profile : High@L3.1
Format settings, CABAC : No
Format settings, ReFrames : 2 frames
Codec ID : V_MPEG4/ISO/AVC
Duration : 10mn 52s
Bit rate : 4 124 Kbps
Width : 1 280 pixels
Height : 718 pixels
Display aspect ratio : 16:9
Frame rate mode : Constant
Frame rate : 25.000 fps
Color space : YUV
Chroma subsampling : 4:2:0
Bit depth : 8 bits
Scan type : Progressive
Bits/(Pixel*Frame) : 0.179
Stream size : 321 MiB (94%)
Title : H.264
Default : Yes
Forced : No
Color primaries : BT.709
Transfer characteristics : BT.709
Matrix coefficients : BT.709

Audio
ID : 2
Format : AC-3
Format/Info : Audio Coding 3
Mode extension : CM (complete main)
Format settings, Endianness : Big
Codec ID : A_AC3
Duration : 10mn 52s
Bit rate mode : Constant
Bit rate : 192 Kbps
Channel(s) : 2 channels
Channel positions : Front: L R
Sampling rate : 48.0 KHz
Bit depth : 16 bits
Compression mode : Lossy
Stream size : 14.9 MiB (4%)
Default : Yes
Forced : No


Kod:
Tekst widoczny dla zalogowanych.
_____
Obraz
Sygnatura•••
Podziękowania dla autora posta:
Nillay, yenx
Nie ma w serwisiebodek610Kopiuj nick
bodek610

Płeć:
Dołączył:
Punkty: 742$
Podziękowania: 255
Posty: 397
Dubbing PL / PL
ocenił na: 0
Justice League Action - S01E18 & 19.pldub.720p.hdtv.x264-deadpool.mkv

Parametry przykładowego odcinka:
Spoiler
General
Unique ID : 196248732072552565413098353856070135903 (0x93A42186E6510A19BB1CE71C68CDB05F)
Complete name : C:\filmy\Justice League Action\justice.league.action.s01e18.hokus.-.psikus.pldub.720p.hdtv.x264-deadpool.mkv
Format : Matroska
Format version : Version 4 / Version 2
File size : 145 MiB
Duration : 10mn 39s
Overall bit rate : 1 903 Kbps
Encoded date : UTC 2017-01-30 18:33:39
Writing application : mkvmerge v7.6.0 ('Garden of Dreams') 64bit built on Feb 8 2015 13:04:34
Writing library : libebml v1.3.1 + libmatroska v1.4.2
DURATION : 00:10:39.712000000
NUMBER_OF_FRAMES : 19991
NUMBER_OF_BYTES : 15353088
_STATISTICS_WRITING_APP : mkvmerge v7.6.0 ('Garden of Dreams') 64bit built on Feb 8 2015 13:04:34
_STATISTICS_WRITING_DATE_UTC : 2017-01-30 18:33:39
_STATISTICS_TAGS : BPS DURATION NUMBER_OF_FRAMES NUMBER_OF_BYTES

Video
ID : 1
Format : AVC
Format/Info : Advanced Video Codec
Format profile : High@L4.1
Format settings, CABAC : Yes
Format settings, ReFrames : 5 frames
Codec ID : V_MPEG4/ISO/AVC
Duration : 10mn 39s
Bit rate : 1 673 Kbps
Width : 1 280 pixels
Height : 720 pixels
Display aspect ratio : 16:9
Frame rate mode : Constant
Frame rate : 25.000 fps
Color space : YUV
Chroma subsampling : 4:2:0
Bit depth : 8 bits
Scan type : Progressive
Bits/(Pixel*Frame) : 0.073
Stream size : 128 MiB (88%)
Writing library : x264 core 148 r2744 b97ae06
Encoding settings : cabac=1 / ref=5 / deblock=1:1:1 / analyse=0x3:0x113 / me=umh / subme=8 / psy=1 / psy_rd=1.00:0.00 / mixed_ref=1 / me_range=16 / chroma_me=1 / trellis=2 / 8x8dct=1 / cqm=0 / deadzone=21,11 / fast_pskip=1 / chroma_qp_offset=-2 / threads=12 / lookahead_threads=2 / sliced_threads=0 / nr=0 / decimate=1 / interlaced=0 / bluray_compat=0 / constrained_intra=0 / bframes=3 / b_pyramid=2 / b_adapt=2 / b_bias=0 / direct=3 / weightb=1 / open_gop=0 / weightp=2 / keyint=250 / keyint_min=25 / scenecut=40 / intra_refresh=0 / rc_lookahead=50 / rc=crf / mbtree=1 / crf=19.0 / qcomp=0.60 / qpmin=0 / qpmax=69 / qpstep=4 / ip_ratio=1.40 / aq=1:1.00
Default : Yes
Forced : No
DURATION : 00:10:39.720000000
NUMBER_OF_FRAMES : 15993
NUMBER_OF_BYTES : 136647065
_STATISTICS_WRITING_APP : mkvmerge v7.6.0 ('Garden of Dreams') 64bit built on Feb 8 2015 13:04:34
_STATISTICS_WRITING_DATE_UTC : 2017-01-30 18:33:39
_STATISTICS_TAGS : BPS DURATION NUMBER_OF_FRAMES NUMBER_OF_BYTES
Matrix coefficients : BT.709

Audio
ID : 2
Format : AC-3
Format/Info : Audio Coding 3
Mode extension : CM (complete main)
Format settings, Endianness : Big
Codec ID : A_AC3
Duration : 10mn 39s
Bit rate mode : Constant
Bit rate : 192 Kbps
Channel(s) : 2 channels
Channel positions : Front: L R
Sampling rate : 48.0 KHz
Bit depth : 16 bits
Compression mode : Lossy
Stream size : 14.6 MiB (10%)
Default : Yes
Forced : No


S1E18 - Hokus-Psikus
Kod:
Tekst widoczny dla zalogowanych.


S1E19 - Plastic Man ratuje świat
Kod:
Tekst widoczny dla zalogowanych.
_____
Obraz
Sygnatura•••
Podziękowania dla autora posta:
yenx
Nie ma w serwisiebodek610Kopiuj nick
bodek610

Płeć:
Dołączył:
Punkty: 742$
Podziękowania: 255
Posty: 397
Dubbing PL / PL
ocenił na: 0
Justice.League.Action.S01E07.Król.Zombie.PLDUB.720p.WEB-DL.AC3.2.0..H.264-YFN

Parametry techniczne odcinka:
Spoiler
General
Unique ID : 177439843253334594261629659746756474118 (0x857DABB5F006865083921F4C6CFC3506)
Complete name : D:\bodzox\bodek\bodek\Justice.League.Action.S01E07.Król.Zombie.PLDUB.720p.WEB-DL.AC3.2.0.H.264-YFN.mkv
Format : Matroska
Format version : Version 4 / Version 2
File size : 342 MiB
Duration : 10mn 53s
Overall bit rate : 4 394 Kbps
Encoded date : UTC 2017-02-05 17:12:36
Writing application : mkvmerge v8.6.1 ('Flying') 32bit
Writing library : libebml v1.3.3 + libmatroska v1.4.4
DURATION : 00:10:53.664000000
NUMBER_OF_FRAMES : 20427
NUMBER_OF_BYTES : 15687936
_STATISTICS_WRITING_APP : mkvmerge v8.6.1 ('Flying') 32bit
_STATISTICS_WRITING_DATE_UT : 2017-02-05 17:12:36
_STATISTICS_TAGS : BPS DURATION NUMBER_OF_FRAMES NUMBER_OF_BYTES

Video
ID : 1
Format : AVC
Format/Info : Advanced Video Codec
Format profile : High@L3.1
Format settings, CABAC : No
Format settings, ReFrames : 2 frames
Codec ID : V_MPEG4/ISO/AVC
Duration : 10mn 53s
Bit rate : 4 114 Kbps
Width : 1 280 pixels
Height : 718 pixels
Display aspect ratio : 16:9
Frame rate mode : Constant
Frame rate : 25.000 fps
Color space : YUV
Chroma subsampling : 4:2:0
Bit depth : 8 bits
Scan type : Progressive
Bits/(Pixel*Frame) : 0.179
Stream size : 321 MiB (94%)
Title : H.264
Default : Yes
Forced : No
Color primaries : BT.709
Transfer characteristics : BT.709
Matrix coefficients : BT.709
Color range : Limited

Audio
ID : 2
Format : AC-3
Format/Info : Audio Coding 3
Mode extension : CM (complete main)
Format settings, Endianness : Big
Codec ID : A_AC3
Duration : 10mn 53s
Bit rate mode : Constant
Bit rate : 192 Kbps
Channel(s) : 2 channels
Channel positions : Front: L R
Sampling rate : 48.0 KHz
Bit depth : 16 bits
Compression mode : Lossy
Stream size : 15.0 MiB (4%)
Default : Yes
Forced : No


Kod:
Tekst widoczny dla zalogowanych.
_____
Obraz
Sygnatura•••
Podziękowania dla autora posta:
yenx
Nie ma w serwisiebodek610Kopiuj nick
bodek610

Płeć:
Dołączył:
Punkty: 742$
Podziękowania: 255
Posty: 397
Dubbing PL / PL
ocenił na: 0
Justice.League.Action.S01E08.Galaktyczny.Żart.PLDUB.720p.WEB-DL.AC3.2.0.H.264-CtrlHD

Parametry techniczne:
Spoiler
General
Unique ID : 220871073939690987865613196531924229634 (0xA62A38B53406A8ADB8B8D25E4C9C5E02)
Complete name : C:\filmy\Justice League Action\Justice.League.Action.S01E08.Galaktyczny.Żart.PLDUB.720p.WEB-DL.AC3.2.0.H.264-CtrlHD.mkv
Format : Matroska
Format version : Version 4 / Version 2
File size : 337 MiB
Duration : 10mn 41s
Overall bit rate : 4 408 Kbps
Encoded date : UTC 2017-02-17 10:58:48
Writing application : mkvmerge v7.6.0 ('Garden of Dreams') 64bit built on Feb 8 2015 13:04:34
Writing library : libebml v1.3.1 + libmatroska v1.4.2
DURATION : 00:10:40.992000000
NUMBER_OF_FRAMES : 20031
NUMBER_OF_BYTES : 15383808
_STATISTICS_WRITING_APP : mkvmerge v7.6.0 ('Garden of Dreams') 64bit built on Feb 8 2015 13:04:34
_STATISTICS_WRITING_DATE_UTC : 2017-02-17 10:58:48
_STATISTICS_TAGS : BPS DURATION NUMBER_OF_FRAMES NUMBER_OF_BYTES

Video
ID : 1
Format : AVC
Format/Info : Advanced Video Codec
Format profile : High@L3.1
Format settings, CABAC : No
Format settings, ReFrames : 2 frames
Codec ID : V_MPEG4/ISO/AVC
Duration : 10mn 41s
Bit rate : 4 129 Kbps
Width : 1 280 pixels
Height : 718 pixels
Display aspect ratio : 16:9
Frame rate mode : Constant
Frame rate : 25.000 fps
Color space : YUV
Chroma subsampling : 4:2:0
Bit depth : 8 bits
Scan type : Progressive
Bits/(Pixel*Frame) : 0.180
Stream size : 315 MiB (94%)
Language : English
Default : Yes
Forced : No
Color primaries : BT.709
Transfer characteristics : BT.709
Matrix coefficients : BT.709

Audio
ID : 2
Format : AC-3
Format/Info : Audio Coding 3
Mode extension : CM (complete main)
Format settings, Endianness : Big
Codec ID : A_AC3
Duration : 10mn 41s
Bit rate mode : Constant
Bit rate : 192 Kbps
Channel(s) : 2 channels
Channel positions : Front: L R
Sampling rate : 48.0 KHz
Bit depth : 16 bits
Compression mode : Lossy
Stream size : 14.7 MiB (4%)
Default : Yes
Forced : No


Kod:
Tekst widoczny dla zalogowanych.


justice.league.action.s01e21.bitwa.o.zabutelkowane.miasto.pldub.720p.hdtv.x264-deadpool

Parametry techniczne:
Spoiler
General
Unique ID : 246866207268840891232024400195628265357 (0xB9B8B3BBC0D28065970FEF6FB25F6F8D)
Complete name : C:\filmy\Justice League Action\justice.league.action.s01e21.bitwa.o.zabutelkowane.miasto.pldub.720p.hdtv.x264-deadpool.mkv
Format : Matroska
Format version : Version 4 / Version 2
File size : 201 MiB
Duration : 10mn 31s
Overall bit rate : 2 664 Kbps
Encoded date : UTC 2017-02-17 11:20:16
Writing application : mkvmerge v7.6.0 ('Garden of Dreams') 64bit built on Feb 8 2015 13:04:34
Writing library : libebml v1.3.1 + libmatroska v1.4.2
DURATION : 00:10:31.840000000
NUMBER_OF_FRAMES : 19745
NUMBER_OF_BYTES : 15164160
_STATISTICS_WRITING_APP : mkvmerge v7.6.0 ('Garden of Dreams') 64bit built on Feb 8 2015 13:04:34
_STATISTICS_WRITING_DATE_UTC : 2017-02-17 11:20:16
_STATISTICS_TAGS : BPS DURATION NUMBER_OF_FRAMES NUMBER_OF_BYTES

Video
ID : 1
Format : AVC
Format/Info : Advanced Video Codec
Format profile : High@L4.1
Format settings, CABAC : Yes
Format settings, ReFrames : 5 frames
Codec ID : V_MPEG4/ISO/AVC
Duration : 10mn 31s
Bit rate : 2 419 Kbps
Width : 1 280 pixels
Height : 720 pixels
Display aspect ratio : 16:9
Frame rate mode : Constant
Frame rate : 25.000 fps
Color space : YUV
Chroma subsampling : 4:2:0
Bit depth : 8 bits
Scan type : Progressive
Bits/(Pixel*Frame) : 0.105
Stream size : 182 MiB (91%)
Writing library : x264 core 148 r2762 90a61ec
Encoding settings : cabac=1 / ref=5 / deblock=1:0:0 / analyse=0x3:0x113 / me=hex / subme=8 / psy=1 / psy_rd=1.00:0.00 / mixed_ref=1 / me_range=16 / chroma_me=1 / trellis=2 / 8x8dct=1 / cqm=0 / deadzone=21,11 / fast_pskip=1 / chroma_qp_offset=-2 / threads=12 / lookahead_threads=2 / sliced_threads=0 / nr=0 / decimate=1 / interlaced=0 / bluray_compat=0 / constrained_intra=0 / bframes=3 / b_pyramid=2 / b_adapt=1 / b_bias=0 / direct=3 / weightb=1 / open_gop=0 / weightp=2 / keyint=250 / keyint_min=25 / scenecut=40 / intra_refresh=0 / rc_lookahead=50 / rc=crf / mbtree=1 / crf=18.0 / qcomp=0.60 / qpmin=0 / qpmax=69 / qpstep=4 / ip_ratio=1.40 / aq=1:1.00
Default : Yes
Forced : No
DURATION : 00:10:31.800000000
NUMBER_OF_FRAMES : 15795
NUMBER_OF_BYTES : 195083966
_STATISTICS_WRITING_APP : mkvmerge v7.6.0 ('Garden of Dreams') 64bit built on Feb 8 2015 13:04:34
_STATISTICS_WRITING_DATE_UTC : 2017-02-17 11:20:16
_STATISTICS_TAGS : BPS DURATION NUMBER_OF_FRAMES NUMBER_OF_BYTES

Audio
ID : 2
Format : AC-3
Format/Info : Audio Coding 3
Mode extension : CM (complete main)
Format settings, Endianness : Big
Codec ID : A_AC3
Duration : 10mn 31s
Bit rate mode : Constant
Bit rate : 192 Kbps
Channel(s) : 2 channels
Channel positions : Front: L R
Sampling rate : 48.0 KHz
Bit depth : 16 bits
Compression mode : Lossy
Stream size : 14.5 MiB (7%)
Default : Yes
Forced : No


Kod:
Tekst widoczny dla zalogowanych.
_____
Obraz
Sygnatura•••
Podziękowania dla autora posta:
yenx
Nie ma w serwisiebodek610Kopiuj nick
bodek610

Płeć:
Dołączył:
Punkty: 742$
Podziękowania: 255
Posty: 397
Dubbing PL / PL
ocenił na: 0
Justice.League.Action.S01E09.Dawno.Temu.w.Gotham.City.PLDUB.720p.WEB-DL.AC3.2.0.H.264-YFN

Parametry techniczne:
Spoiler
General
Unique ID : 238610573185909050984234084225926923796 (0xB382B98C23CD49FFB81D7D5B76858614)
Complete name : C:\filmy\Justice League Action\Justice.League.Action.S01E09.Dawno.Temu.w.Gotham.City.PLDUB.720p.WEB-DL.AC3.2.0.H.264-YFN.mkv
Format : Matroska
Format version : Version 4 / Version 2
File size : 330 MiB
Duration : 10mn 30s
Overall bit rate : 4 398 Kbps
Encoded date : UTC 2017-02-20 09:02:52
Writing application : mkvmerge v7.6.0 ('Garden of Dreams') 64bit built on Feb 8 2015 13:04:34
Writing library : libebml v1.3.1 + libmatroska v1.4.2
DURATION : 00:10:30.368000000
NUMBER_OF_FRAMES : 19699
NUMBER_OF_BYTES : 15128832
_STATISTICS_WRITING_APP : mkvmerge v7.6.0 ('Garden of Dreams') 64bit built on Feb 8 2015 13:04:34
_STATISTICS_WRITING_DATE_UTC : 2017-02-20 09:02:52
_STATISTICS_TAGS : BPS DURATION NUMBER_OF_FRAMES NUMBER_OF_BYTES

Video
ID : 1
Format : AVC
Format/Info : Advanced Video Codec
Format profile : High@L3.1
Format settings, CABAC : No
Format settings, ReFrames : 2 frames
Codec ID : V_MPEG4/ISO/AVC
Duration : 10mn 30s
Bit rate : 4 119 Kbps
Width : 1 280 pixels
Height : 718 pixels
Display aspect ratio : 16:9
Frame rate mode : Constant
Frame rate : 25.000 fps
Color space : YUV
Chroma subsampling : 4:2:0
Bit depth : 8 bits
Scan type : Progressive
Bits/(Pixel*Frame) : 0.179
Stream size : 309 MiB (94%)
Title : H.264
Default : Yes
Forced : No
Color primaries : BT.709
Transfer characteristics : BT.709
Matrix coefficients : BT.709

Audio
ID : 2
Format : AC-3
Format/Info : Audio Coding 3
Mode extension : CM (complete main)
Format settings, Endianness : Big
Codec ID : A_AC3
Duration : 10mn 30s
Bit rate mode : Constant
Bit rate : 192 Kbps
Channel(s) : 2 channels
Channel positions : Front: L R
Sampling rate : 48.0 KHz
Bit depth : 16 bits
Compression mode : Lossy
Stream size : 14.4 MiB (4%)
Default : Yes
Forced : No


Kod:
Tekst widoczny dla zalogowanych.
_____
Obraz
Sygnatura•••
Podziękowania dla autora posta:
yenx
Nie ma w serwisiebodek610Kopiuj nick
bodek610

Płeć:
Dołączył:
Punkty: 742$
Podziękowania: 255
Posty: 397
Dubbing PL / PL
ocenił na: 0
Justice.League.Action.S01E10.Pod.Czerwonym.Słońcem.PLDUB.720p.WEB-DL.AC3.2.0.H.264-YFN

Parametry techniczne odcinka:
Spoiler
General
Unique ID : 190880032075216065806732505285880734516 (0x8F9A282E4376CBB0A5D7F26B8C7C6334)
Complete name : C:\filmy\Justice League Action\Justice.League.Action.S01E10.Pod.Czerwonym.Słońcem.PLDUB.720p.WEB-DL.AC3.2.0.H.264-YFN.mkv
Format : Matroska
Format version : Version 4 / Version 2
File size : 342 MiB
Duration : 10mn 53s
Overall bit rate : 4 396 Kbps
Encoded date : UTC 2017-02-26 18:56:28
Writing application : mkvmerge v7.6.0 ('Garden of Dreams') 64bit built on Feb 8 2015 13:04:34
Writing library : libebml v1.3.1 + libmatroska v1.4.2
DURATION : 00:10:53.280000000
NUMBER_OF_FRAMES : 20415
NUMBER_OF_BYTES : 15678720
_STATISTICS_WRITING_APP : mkvmerge v7.6.0 ('Garden of Dreams') 64bit built on Feb 8 2015 13:04:34
_STATISTICS_WRITING_DATE_UTC : 2017-02-26 18:56:28
_STATISTICS_TAGS : BPS DURATION NUMBER_OF_FRAMES NUMBER_OF_BYTES

Video
ID : 1
Format : AVC
Format/Info : Advanced Video Codec
Format profile : High@L3.1
Format settings, CABAC : No
Format settings, ReFrames : 2 frames
Codec ID : V_MPEG4/ISO/AVC
Duration : 10mn 53s
Bit rate : 4 116 Kbps
Width : 1 280 pixels
Height : 718 pixels
Display aspect ratio : 16:9
Frame rate mode : Constant
Frame rate : 25.000 fps
Color space : YUV
Chroma subsampling : 4:2:0
Bit depth : 8 bits
Scan type : Progressive
Bits/(Pixel*Frame) : 0.179
Stream size : 321 MiB (94%)
Title : H.264
Default : Yes
Forced : No
Color primaries : BT.709
Transfer characteristics : BT.709
Matrix coefficients : BT.709

Audio
ID : 2
Format : AC-3
Format/Info : Audio Coding 3
Mode extension : CM (complete main)
Format settings, Endianness : Big
Codec ID : A_AC3
Duration : 10mn 53s
Bit rate mode : Constant
Bit rate : 192 Kbps
Channel(s) : 2 channels
Channel positions : Front: L R
Sampling rate : 48.0 KHz
Bit depth : 16 bits
Compression mode : Lossy
Stream size : 15.0 MiB (4%)
Default : Yes
Forced : No



Kod:
Tekst widoczny dla zalogowanych.
_____
Obraz
Sygnatura•••
Nie ma w serwisiebodek610Kopiuj nick
bodek610

Płeć:
Dołączył:
Punkty: 742$
Podziękowania: 255
Posty: 397
Dubbing PL / PL
ocenił na: 0
Justice.League.Action.S01E11.Zagraj.w.to.jeszcze.raz.Cyborgu!.720p.PLDUB.WEB-DL.AC3.2.0.H.264-YFN

Parametry techniczne:
Spoiler
General
Unique ID : 241468252613669751986623891635605600330 (0xB5A918056C5C92418742F3522A23F84A)
Complete name : C:\filmy\Justice League Action\Justice.League.Action.S01E11.Zagraj.w.to.jeszcze.raz.Cyborgu!.720p.PLDUB.WEB-DL.AC3.2.0.H.264-YFN.mkv
Format : Matroska
Format version : Version 4 / Version 2
File size : 343 MiB
Duration : 10mn 53s
Overall bit rate : 4 401 Kbps
Encoded date : UTC 2017-03-05 16:43:38
Writing application : mkvmerge v7.6.0 ('Garden of Dreams') 64bit built on Feb 8 2015 13:04:34
Writing library : libebml v1.3.1 + libmatroska v1.4.2
DURATION : 00:10:53.120000000
NUMBER_OF_FRAMES : 20410
NUMBER_OF_BYTES : 15674880
_STATISTICS_WRITING_APP : mkvmerge v7.6.0 ('Garden of Dreams') 64bit built on Feb 8 2015 13:04:34
_STATISTICS_WRITING_DATE_UTC : 2017-03-05 16:43:38
_STATISTICS_TAGS : BPS DURATION NUMBER_OF_FRAMES NUMBER_OF_BYTES

Video
ID : 1
Format : AVC
Format/Info : Advanced Video Codec
Format profile : High@L3.1
Format settings, CABAC : No
Format settings, ReFrames : 2 frames
Codec ID : V_MPEG4/ISO/AVC
Duration : 10mn 53s
Bit rate : 4 121 Kbps
Width : 1 280 pixels
Height : 718 pixels
Display aspect ratio : 16:9
Frame rate mode : Constant
Frame rate : 25.000 fps
Color space : YUV
Chroma subsampling : 4:2:0
Bit depth : 8 bits
Scan type : Progressive
Bits/(Pixel*Frame) : 0.179
Stream size : 321 MiB (94%)
Title : H.264
Default : Yes
Forced : No
Color primaries : BT.709
Transfer characteristics : BT.709
Matrix coefficients : BT.709

Audio
ID : 2
Format : AC-3
Format/Info : Audio Coding 3
Mode extension : CM (complete main)
Format settings, Endianness : Big
Codec ID : A_AC3
Duration : 10mn 53s
Bit rate mode : Constant
Bit rate : 192 Kbps
Channel(s) : 2 channels
Channel positions : Front: L R
Sampling rate : 48.0 KHz
Bit depth : 16 bits
Compression mode : Lossy
Stream size : 14.9 MiB (4%)
Default : Yes
Forced : No


Kod:
Tekst widoczny dla zalogowanych.
_____
Obraz
Sygnatura•••
Podziękowania dla autora posta:
yenx
Nie ma w serwisiebodek610Kopiuj nick
bodek610

Płeć:
Dołączył:
Punkty: 742$
Podziękowania: 255
Posty: 397
Dubbing PL / PL
ocenił na: 0
Justice.League.Action.S01E12.Odpych.PLDUB.720p.WEB-DL.AC3.2.0.H.264-YFN

Parametry techniczne:
Spoiler
General
Unique ID : 247513422952252175907740709842178076277 (0xBA3559EE26C4930E8769547B4B54EE75)
Complete name : D:\Justice.League.Action.S01E12.Odpych.PLDUB.720p.WEB-DL.AC3.2.0.H.264-YFN.mkv
Format : Matroska
Format version : Version 4 / Version 2
File size : 325 MiB
Duration : 10mn 23s
Overall bit rate : 4 371 Kbps
Encoded date : UTC 2017-03-12 10:47:22
Writing application : mkvmerge v7.6.0 ('Garden of Dreams') 64bit built on Feb 8 2015 13:04:34
Writing library : libebml v1.3.1 + libmatroska v1.4.2
DURATION : 00:10:23.040000000
NUMBER_OF_FRAMES : 19470
NUMBER_OF_BYTES : 14952960
_STATISTICS_WRITING_APP : mkvmerge v7.6.0 ('Garden of Dreams') 64bit built on Feb 8 2015 13:04:34
_STATISTICS_WRITING_DATE_UT : 2017-03-12 10:47:22
_STATISTICS_TAGS : BPS DURATION NUMBER_OF_FRAMES NUMBER_OF_BYTES

Video
ID : 1
Format : AVC
Format/Info : Advanced Video Codec
Format profile : High@L3.1
Format settings, CABAC : No
Format settings, ReFrames : 2 frames
Codec ID : V_MPEG4/ISO/AVC
Duration : 10mn 23s
Bit rate : 4 092 Kbps
Width : 1 280 pixels
Height : 718 pixels
Display aspect ratio : 16:9
Frame rate mode : Constant
Frame rate : 25.000 fps
Color space : YUV
Chroma subsampling : 4:2:0
Bit depth : 8 bits
Scan type : Progressive
Bits/(Pixel*Frame) : 0.178
Stream size : 304 MiB (94%)
Title : H.264
Default : Yes
Forced : No
Color primaries : BT.709
Transfer characteristics : BT.709
Matrix coefficients : BT.709
Color range : Limited

Audio
ID : 2
Format : AC-3
Format/Info : Audio Coding 3
Mode extension : CM (complete main)
Format settings, Endianness : Big
Codec ID : A_AC3
Duration : 10mn 23s
Bit rate mode : Constant
Bit rate : 192 Kbps
Channel(s) : 2 channels
Channel positions : Front: L R
Sampling rate : 48.0 KHz
Bit depth : 16 bits
Compression mode : Lossy
Stream size : 14.3 MiB (4%)
Default : Yes
Forced : No


Kod:
Tekst widoczny dla zalogowanych.
_____
Obraz
Sygnatura•••
Podziękowania dla autora posta:
yenx
Nie ma w serwisiebodek610Kopiuj nick
bodek610

Płeć:
Dołączył:
Punkty: 742$
Podziękowania: 255
Posty: 397
Dubbing PL / PL
ocenił na: 0
Justice.League.Action.S01E13.Hokus.-.Psikus.PLDUB.720p.WEB-DL.AC3.2.0.H.264-YFN

Parametry techniczne odcinka:
Spoiler
General
Unique ID : 233515767962020527346008957680385782914 (0xAFAD804190FED094AAD01F1029EFF482)
Complete name : C:\filmy\Justice League Action\Justice.League.Action.S01E13.Hokus.-.Psikus.PLDUB.720p.PLDUB.WEB-DL.AC3.2.0.H.264-YFN.mkv
Format : Matroska
Format version : Version 4 / Version 2
File size : 340 MiB
Duration : 10mn 45s
Overall bit rate : 4 411 Kbps
Encoded date : UTC 2017-03-19 18:30:07
Writing application : mkvmerge v7.6.0 ('Garden of Dreams') 64bit built on Feb 8 2015 13:04:34
Writing library : libebml v1.3.1 + libmatroska v1.4.2
DURATION : 00:10:45.824000000
NUMBER_OF_FRAMES : 20182
NUMBER_OF_BYTES : 15499776
_STATISTICS_WRITING_APP : mkvmerge v7.6.0 ('Garden of Dreams') 64bit built on Feb 8 2015 13:04:34
_STATISTICS_WRITING_DATE_UTC : 2017-03-19 18:30:07
_STATISTICS_TAGS : BPS DURATION NUMBER_OF_FRAMES NUMBER_OF_BYTES

Video
ID : 1
Format : AVC
Format/Info : Advanced Video Codec
Format profile : High@L3.1
Format settings, CABAC : No
Format settings, ReFrames : 2 frames
Codec ID : V_MPEG4/ISO/AVC
Duration : 10mn 45s
Bit rate : 4 131 Kbps
Width : 1 280 pixels
Height : 718 pixels
Display aspect ratio : 16:9
Frame rate mode : Constant
Frame rate : 25.000 fps
Color space : YUV
Chroma subsampling : 4:2:0
Bit depth : 8 bits
Scan type : Progressive
Bits/(Pixel*Frame) : 0.180
Stream size : 318 MiB (94%)
Title : H.264
Default : Yes
Forced : No
Color primaries : BT.709
Transfer characteristics : BT.709
Matrix coefficients : BT.709

Audio
ID : 2
Format : AC-3
Format/Info : Audio Coding 3
Mode extension : CM (complete main)
Format settings, Endianness : Big
Codec ID : A_AC3
Duration : 10mn 45s
Bit rate mode : Constant
Bit rate : 192 Kbps
Channel(s) : 2 channels
Channel positions : Front: L R
Sampling rate : 48.0 KHz
Bit depth : 16 bits
Compression mode : Lossy
Stream size : 14.8 MiB (4%)
Default : Yes
Forced : No


Kod:
Tekst widoczny dla zalogowanych.
_____
Obraz
Sygnatura•••
Podziękowania dla autora posta:
yenx
Nie ma w serwisiebodek610Kopiuj nick
bodek610

Płeć:
Dołączył:
Punkty: 742$
Podziękowania: 255
Posty: 397
Dubbing PL / PL
ocenił na: 0
Justice.League.Action.S01E14.Demon.Szybkości.PLDUB.720p.WEB-DL.AC3.2.0.H.264-YFN

Parametry techniczne odcinka:
Spoiler
General
Unique ID : 195293405334358549846044061559050019762 (0x92EC244840896D819AD79BC9D70523B2)
Complete name : C:\filmy\Justice League Action\Justice.League.Action.S01E14.Demon.Szybkości.PLDUB.720p.WEB-DL.AC3.2.0.H.264-YFN.mkv
Format : Matroska
Format version : Version 4 / Version 2
File size : 337 MiB
Duration : 10mn 38s
Overall bit rate : 4 435 Kbps
Encoded date : UTC 2017-03-26 10:57:32
Writing application : mkvmerge v7.6.0 ('Garden of Dreams') 64bit built on Feb 8 2015 13:04:34
Writing library : libebml v1.3.1 + libmatroska v1.4.2
DURATION : 00:10:38.400000000
NUMBER_OF_FRAMES : 19950
NUMBER_OF_BYTES : 15321600
_STATISTICS_WRITING_APP : mkvmerge v7.6.0 ('Garden of Dreams') 64bit built on Feb 8 2015 13:04:34
_STATISTICS_WRITING_DATE_UTC : 2017-03-26 10:57:32
_STATISTICS_TAGS : BPS DURATION NUMBER_OF_FRAMES NUMBER_OF_BYTES

Video
ID : 1
Format : AVC
Format/Info : Advanced Video Codec
Format profile : High@L3.1
Format settings, CABAC : No
Format settings, ReFrames : 2 frames
Codec ID : V_MPEG4/ISO/AVC
Duration : 10mn 38s
Bit rate : 4 154 Kbps
Width : 1 280 pixels
Height : 718 pixels
Display aspect ratio : 16:9
Frame rate mode : Constant
Frame rate : 25.000 fps
Color space : YUV
Chroma subsampling : 4:2:0
Bit depth : 8 bits
Scan type : Progressive
Bits/(Pixel*Frame) : 0.181
Stream size : 316 MiB (94%)
Title : H.264
Default : Yes
Forced : No
Color primaries : BT.709
Transfer characteristics : BT.709
Matrix coefficients : BT.709

Audio
ID : 2
Format : AC-3
Format/Info : Audio Coding 3
Mode extension : CM (complete main)
Format settings, Endianness : Big
Codec ID : A_AC3
Duration : 10mn 38s
Bit rate mode : Constant
Bit rate : 192 Kbps
Channel(s) : 2 channels
Channel positions : Front: L R
Sampling rate : 48.0 KHz
Bit depth : 16 bits
Compression mode : Lossy
Stream size : 14.6 MiB (4%)
Default : Yes
Forced : No


Kod:
Tekst widoczny dla zalogowanych.
_____
Obraz
Sygnatura•••
Podziękowania dla autora posta:
yenx