Zaloguj
Liga Sprawiedliwych: Akcja

Justice League Action
Kreskówka, 2016
10,00  głosy: 4Oceń:
Ulubiony
Do obejrzenia
Obejrzany
Premiera:
4 grudnia 2016Polska27 listopada 2016
Produkcja:

Dodaj sezon
Nie ma w serwisiebodek610Kopiuj nick
bodek610

Płeć:
Dołączył:
Punkty: 742$
Podziękowania: 255
Posty: 397
Dubbing PL / PL
ocenił na: 0
S1E05 - Taksówkarz - decydujące starcie
Kod:
Tekst widoczny dla zalogowanych.


S1E06 - Wartości Rodziny Nuklearnej
Kod:
Tekst widoczny dla zalogowanych.


Kod:
Tekst widoczny dla zalogowanych.
_____
Obraz
Sygnatura•••
Podziękowania dla autora posta:
yenx
Nie ma w serwisiegrzegorzjKopiuj nick
grzegorzj

Płeć:
Dołączył:
Punkty: 820$
Podziękowania: 121
Posty: 244
Dubbing PL / PL
ocenił na: 0
Justice League Action.S01E01-04.PLDUB.HDTV.XVID.avi

Rozmiar: 345 MB
Czas trwania: 00:41:07
Format: AVI. Video kodek: XviD
Video bitrate: 1 039 Kbps
Video rozdzielczość: 640x360
Audio bitrate: 128 Kbps


Kod:
Tekst widoczny dla zalogowanych.


ODCINKI:
Taksówkarz decydujące starcie, Wartości rodziny Nuklearnych,Król zombie, Galaktyczny żart


NUMERACJA ODCINKÓW WEDŁUG EMISJI W CN
Podziękowania dla autora posta:
sokolnic
Nie ma w serwisiebodek610Kopiuj nick
bodek610

Płeć:
Dołączył:
Punkty: 742$
Podziękowania: 255
Posty: 397
Dubbing PL / PL
ocenił na: 0
S1E07 - Król Zombie
Kod:
Tekst widoczny dla zalogowanych.


S1E08 - Galaktyczny żart
Kod:
Tekst widoczny dla zalogowanych.
_____
Obraz
Sygnatura•••
Podziękowania dla autora posta:
yenx
Nie ma w serwisiegrzegorzjKopiuj nick
grzegorzj

Płeć:
Dołączył:
Punkty: 820$
Podziękowania: 121
Posty: 244
Dubbing PL / PL
ocenił na: 0
Justice League Action.S01E05-08.PLDUB.HDTV.XVID.avi

Rozmiar pliku: 350.0 MB
Czas trwania: 00:40:39
Format: AVI. Video kodek: XviD
Video bitrate: 1 069 Kbps
Video rozdzielczość: 640x360
Audio bitrate: 128 Kbps
--------------------------------------------------------------------------------------------------------------------------------
ODCINKI:
Pod Czerwonym Słońcem, Demon szybkości, Bestia z kapelusza, Luthor wśród nieśmiertelnych


Kod:
Tekst widoczny dla zalogowanych.

NUMERACJA ODCINKÓW WEDŁUG EMISJI W CN
Podziękowania dla autora posta:
sokolnic
Nie ma w serwisiebodek610Kopiuj nick
bodek610

Płeć:
Dołączył:
Punkty: 742$
Podziękowania: 255
Posty: 397
Inny język
ocenił na: 0
S1E10 - Pod czerwonym słońcem

Kod:
Tekst widoczny dla zalogowanych.


S1E01-04 - Tetralogia: Shazam Slam (odcinki 1-4 w Polsce będą miały swoją premierę 22 stycznia), wersja 720p/1080p po angielsku

720p
Spoiler
]---------------------------
Justice.League.Action.S01E01E02E03E04.Shazam.Slam.720p.WEB-DL.DD5.1.AAC2.0.H.264-YFN

Format: Matroska Video File (MKV)
Video: MPEG4 Video (H264) 1280x716 23.976fps
Audio 1: Dolby AC3 48000Hz 6 channels 384Kbps
Audio 2: MPEG4 Audio (AAC) 48000Hz stereo
Subs: English Closed Captions (SubRip Text)
Duration: 00:43:26
File size: 1.37 GB

---------------------------


Justice.League.Action.S01E01E02E03E04.Shazam.Slam.720p.WEB-DL.DD5.1.AAC2.0.H.264-YFN.mkv (1.38 GB)

Kod:
Tekst widoczny dla zalogowanych.


Spoiler
---------------------------
Justice.League.Action.S01E01E02E03E04.Shazam.Slam.1080p.WEB-DL.DD5.1.AAC2.0.H.264-YFN

Format: Matroska Video File (MKV)
Video: MPEG4 Video (H264) 1908x1070 23.976fps
Audio 1: Dolby AC3 48000Hz 6 channels 384Kbps
Audio 2: MPEG4 Audio (AAC) 48000Hz stereo
Subs: English Closed Captions (SubRip Text)
Duration: 00:43:26
File size: 1.70 GB

---------------------------


Justice.League.Action.S01E01E02E03E04.Shazam.Slam.1080p.WEB-DL.DD5.1.AAC2.0.H.264-YFN.mkv (1.71 GB)

Kod:
Tekst widoczny dla zalogowanych.
_____
Obraz
Sygnatura•••
Podziękowania dla autora posta:
yenx
Nie ma w serwisiegrzegorzjKopiuj nick
grzegorzj

Płeć:
Dołączył:
Punkty: 820$
Podziękowania: 121
Posty: 244
Dubbing PL / PL
ocenił na: 0
Justice League Action.S01E09-10.PLDUB.HDTV.XVID.avi

Rozmiar pliku: 203.5 MB
Czas trwania: 00:20:27
Format: AVI
Video kodek: XVID
Video bitrate: 1 250 Kbps
Video rozdzielczość: 640x352
Audio bitrate: 128 Kbps
-----------------------------------------------------------------------------------------------------------------
ODCINKI
Czerwone Latarnie wpadają w szał, Ciepło-zimno



Kod:
Tekst widoczny dla zalogowanych.

NUMERACJA ODCINKÓW WEDŁUG EMISJI W CN
Nie ma w serwisiebodek610Kopiuj nick
bodek610

Płeć:
Dołączył:
Punkty: 742$
Podziękowania: 255
Posty: 397
Dubbing PL / PL
ocenił na: 0
Justice League Action - S01E14-18.pldub.720p.hdtv.x264-deadpool.mkv

Parametry techniczne przykładowego odcinka:
Spoiler
General
Unique ID : 187890368970262767514878612018756002984 (0x8D5A5E68C56456F7A2D541AFC77F24A8)
Complete name : C:\filmy\Justice League Action\justice.league.action.s01e14.demon.szybkości.pldub.720p.hdtv.x264-deadpool.mkv
Format : Matroska
Format version : Version 4 / Version 2
File size : 154 MiB
Duration : 10mn 33s
Overall bit rate : 2 035 Kbps
Encoded date : UTC 2016-12-24 19:34:28
Writing application : mkvmerge v8.6.1 ('Flying') 32bit
Writing library : libebml v1.3.3 + libmatroska v1.4.4
DURATION : 00:10:33.824000000
NUMBER_OF_FRAMES : 19807
NUMBER_OF_BYTES : 15211776
_STATISTICS_WRITING_APP : mkvmerge v8.6.1 ('Flying') 32bit
_STATISTICS_WRITING_DATE_UTC : 2016-12-24 19:34:28
_STATISTICS_TAGS : BPS DURATION NUMBER_OF_FRAMES NUMBER_OF_BYTES

Video
ID : 1
Format : AVC
Format/Info : Advanced Video Codec
Format profile : High@L4.1
Format settings, CABAC : Yes
Format settings, ReFrames : 5 frames
Codec ID : V_MPEG4/ISO/AVC
Duration : 10mn 33s
Bit rate : 1 803 Kbps
Width : 1 280 pixels
Height : 720 pixels
Display aspect ratio : 16:9
Frame rate mode : Constant
Frame rate : 25.000 fps
Color space : YUV
Chroma subsampling : 4:2:0
Bit depth : 8 bits
Scan type : Progressive
Bits/(Pixel*Frame) : 0.078
Stream size : 136 MiB (89%)
Writing library : x264 core 148 r2744 b97ae06
Encoding settings : cabac=1 / ref=5 / deblock=1:1:1 / analyse=0x3:0x113 / me=umh / subme=8 / psy=1 / psy_rd=1.00:0.00 / mixed_ref=1 / me_range=16 / chroma_me=1 / trellis=2 / 8x8dct=1 / cqm=0 / deadzone=21,11 / fast_pskip=1 / chroma_qp_offset=-2 / threads=12 / lookahead_threads=2 / sliced_threads=0 / nr=0 / decimate=1 / interlaced=0 / bluray_compat=0 / constrained_intra=0 / bframes=3 / b_pyramid=2 / b_adapt=2 / b_bias=0 / direct=3 / weightb=1 / open_gop=0 / weightp=2 / keyint=250 / keyint_min=25 / scenecut=40 / intra_refresh=0 / rc_lookahead=50 / rc=crf / mbtree=1 / crf=19.0 / qcomp=0.60 / qpmin=0 / qpmax=69 / qpstep=4 / ip_ratio=1.40 / aq=1:1.00
Default : Yes
Forced : No
DURATION : 00:10:33.800000000
NUMBER_OF_FRAMES : 15845
NUMBER_OF_BYTES : 145869812
_STATISTICS_WRITING_APP : mkvmerge v8.6.1 ('Flying') 32bit
_STATISTICS_WRITING_DATE_UTC : 2016-12-24 19:34:28
_STATISTICS_TAGS : BPS DURATION NUMBER_OF_FRAMES NUMBER_OF_BYTES
Matrix coefficients : BT.709

Audio
ID : 2
Format : AC-3
Format/Info : Audio Coding 3
Mode extension : CM (complete main)
Format settings, Endianness : Big
Codec ID : A_AC3
Duration : 10mn 33s
Bit rate mode : Constant
Bit rate : 192 Kbps
Channel(s) : 2 channels
Channel positions : Front: L R
Sampling rate : 48.0 KHz
Bit depth : 16 bits
Compression mode : Lossy
Stream size : 14.5 MiB (9%)
Default : Yes
Forced : No


S1E14 - Demon szybkości
Kod:
Tekst widoczny dla zalogowanych.


S1E15 - Bestia z kapelusza
Kod:
Tekst widoczny dla zalogowanych.


S1E16 - Luthor wśród nieśmiertelnych
Kod:
Tekst widoczny dla zalogowanych.


S1E17- Czerwone latarnie wpadają w szał
Kod:
Tekst widoczny dla zalogowanych.


S1E18 - Ciepło-zimno
Kod:
Tekst widoczny dla zalogowanych.
_____
Obraz
Sygnatura•••
Podziękowania dla autora posta:
yenx
Nie ma w serwisiebodek610Kopiuj nick
bodek610

Płeć:
Dołączył:
Punkty: 742$
Podziękowania: 255
Posty: 397
Dubbing PL / PL
ocenił na: 0
Justice League Action - S01E09 & 20.pldub.720p.hdtv.x264-deadpool.mkv

Parametry technicznego przykładowego odcinka:
Spoiler
General
Unique ID : 232202597650739329440824709145940438958 (0xAEB097F609F6C890A70448F4294BAFAE)
Complete name : D:\bodzox\bodek\bodek\justice.league.action.s01e09.dawno.temu.w.gotham.city.720p.pldub.hdtv.x264-deadpool.mkv
Format : Matroska
Format version : Version 4 / Version 2
File size : 158 MiB
Duration : 10mn 24s
Overall bit rate : 2 122 Kbps
Encoded date : UTC 2017-01-23 18:51:03
Writing application : mkvmerge v8.6.1 ('Flying') 32bit
Writing library : libebml v1.3.3 + libmatroska v1.4.4
DURATION : 00:10:24.608000000
NUMBER_OF_FRAMES : 19519
NUMBER_OF_BYTES : 14990592
_STATISTICS_WRITING_APP : mkvmerge v8.6.1 ('Flying') 32bit
_STATISTICS_WRITING_DATE_UT : 2017-01-23 18:51:03
_STATISTICS_TAGS : BPS DURATION NUMBER_OF_FRAMES NUMBER_OF_BYTES

Video
ID : 1
Format : AVC
Format/Info : Advanced Video Codec
Format profile : High@L4.1
Format settings, CABAC : Yes
Format settings, ReFrames : 5 frames
Codec ID : V_MPEG4/ISO/AVC
Duration : 10mn 24s
Bit rate : 1 888 Kbps
Width : 1 280 pixels
Height : 720 pixels
Display aspect ratio : 16:9
Frame rate mode : Constant
Frame rate : 25.000 fps
Color space : YUV
Chroma subsampling : 4:2:0
Bit depth : 8 bits
Scan type : Progressive
Bits/(Pixel*Frame) : 0.082
Stream size : 141 MiB (89%)
Writing library : x264 core 148 r2744 b97ae06
Encoding settings : cabac=1 / ref=5 / deblock=1:-2:-1 / analyse=0x3:0x113 / me=umh / subme=8 / psy=1 / psy_rd=1.00:0.00 / mixed_ref=1 / me_range=16 / chroma_me=1 / trellis=2 / 8x8dct=1 / cqm=0 / deadzone=21,11 / fast_pskip=1 / chroma_qp_offset=-2 / threads=12 / lookahead_threads=2 / sliced_threads=0 / nr=0 / decimate=1 / interlaced=0 / bluray_compat=0 / constrained_intra=0 / bframes=3 / b_pyramid=2 / b_adapt=2 / b_bias=0 / direct=3 / weightb=1 / open_gop=0 / weightp=2 / keyint=250 / keyint_min=25 / scenecut=40 / intra_refresh=0 / rc_lookahead=50 / rc=crf / mbtree=1 / crf=19.0 / qcomp=0.60 / qpmin=0 / qpmax=69 / qpstep=4 / ip_ratio=1.40 / aq=1:1.00
Default : Yes
Forced : No
Matrix coefficients : BT.709
Color range : Limited
DURATION : 00:10:24.600000000
NUMBER_OF_FRAMES : 15615
NUMBER_OF_BYTES : 150549238
_STATISTICS_WRITING_APP : mkvmerge v8.6.1 ('Flying') 32bit
_STATISTICS_WRITING_DATE_UT : 2017-01-23 18:51:03
_STATISTICS_TAGS : BPS DURATION NUMBER_OF_FRAMES NUMBER_OF_BYTES

Audio
ID : 2
Format : AC-3
Format/Info : Audio Coding 3
Mode extension : CM (complete main)
Format settings, Endianness : Big
Codec ID : A_AC3
Duration : 10mn 24s
Bit rate mode : Constant
Bit rate : 192 Kbps
Channel(s) : 2 channels
Channel positions : Front: L R
Sampling rate : 48.0 KHz
Bit depth : 16 bits
Compression mode : Lossy
Stream size : 14.3 MiB (9%)
Default : Yes
Forced : No


S1E09 - Dawno temu w Gotham City
Kod:
Tekst widoczny dla zalogowanych.


S1E20 - Wycieczka terenowa
Kod:
Tekst widoczny dla zalogowanych.
_____
Obraz
Sygnatura•••
Podziękowania dla autora posta:
Djkam
Nie ma w serwisiebodek610Kopiuj nick
bodek610

Płeć:
Dołączył:
Punkty: 742$
Podziękowania: 255
Posty: 397
Dubbing PL / PL
ocenił na: 0
Justice.League.Action.S01E05.Taksówkarz.-.Decydujące.Starcie.PLDUB.720p.WEB-DL.AC3.2.0.H.264-YFN

Parametry techniczne:
Spoiler
General
Unique ID : 227604409301745592975493197854565406231 (0xAB3B03C5AA43F3148E1BF9D1D6371617)
Complete name : C:\filmy\Justice League Action\Justice.League.Action.S01E05.Taksówkarz.-.Decydujące.Starcie.PLDUB.720p.WEB-DL.AC3.2.0.H.264-YFN.mkv
Format : Matroska
Format version : Version 4 / Version 2
File size : 340 MiB
Duration : 10mn 49s
Overall bit rate : 4 399 Kbps
Encoded date : UTC 2017-01-26 19:06:04
Writing application : mkvmerge v7.6.0 ('Garden of Dreams') 64bit built on Feb 8 2015 13:04:34
Writing library : libebml v1.3.1 + libmatroska v1.4.2
DURATION : 00:10:49.056000000
NUMBER_OF_FRAMES : 20283
NUMBER_OF_BYTES : 15577344
_STATISTICS_WRITING_APP : mkvmerge v7.6.0 ('Garden of Dreams') 64bit built on Feb 8 2015 13:04:34
_STATISTICS_WRITING_DATE_UTC : 2017-01-26 19:06:04
_STATISTICS_TAGS : BPS DURATION NUMBER_OF_FRAMES NUMBER_OF_BYTES

Video
ID : 1
Format : AVC
Format/Info : Advanced Video Codec
Format profile : High@L3.1
Format settings, CABAC : No
Format settings, ReFrames : 2 frames
Codec ID : V_MPEG4/ISO/AVC
Duration : 10mn 49s
Bit rate : 4 120 Kbps
Width : 1 280 pixels
Height : 718 pixels
Display aspect ratio : 16:9
Frame rate mode : Constant
Frame rate : 25.000 fps
Color space : YUV
Chroma subsampling : 4:2:0
Bit depth : 8 bits
Scan type : Progressive
Bits/(Pixel*Frame) : 0.179
Stream size : 319 MiB (94%)
Title : H.264
Default : Yes
Forced : No
Color primaries : BT.709
Transfer characteristics : BT.709
Matrix coefficients : BT.709

Audio
ID : 2
Format : AC-3
Format/Info : Audio Coding 3
Mode extension : CM (complete main)
Format settings, Endianness : Big
Codec ID : A_AC3
Duration : 10mn 49s
Bit rate mode : Constant
Bit rate : 192 Kbps
Channel(s) : 2 channels
Channel positions : Front: L R
Sampling rate : 48.0 KHz
Bit depth : 16 bits
Compression mode : Lossy
Stream size : 14.9 MiB (4%)
Default : Yes
Forced : No


Kod:
Tekst widoczny dla zalogowanych.
_____
Obraz
Sygnatura•••
Podziękowania dla autora posta:
yenx
Nie ma w serwisiebodek610Kopiuj nick
bodek610

Płeć:
Dołączył:
Punkty: 742$
Podziękowania: 255
Posty: 397
Dubbing PL / PL
ocenił na: 0
Justice League Action - S01E11 & 12.pldub.720p.hdtv.x264-deadpool.mkv

Parametry przykładowego odcinka:
Spoiler
General
Unique ID : 171874217854809242192745174019845548522 (0x814DC5314C2DA29A8E59D120A3FE69EA)
Complete name : Q:\justice.league.action.s01e11.zagraj.w.to.jeszcze.raz.cyborgu!.pldub.720p.hdtv.x264-deadpool.mkv
Format : Matroska
Format version : Version 4 / Version 2
File size : 163 MiB
Duration : 10mn 47s
Overall bit rate : 2 106 Kbps
Encoded date : UTC 2017-01-27 18:21:36
Writing application : mkvmerge v8.6.1 ('Flying') 32bit
Writing library : libebml v1.3.3 + libmatroska v1.4.4
DURATION : 00:10:47.712000000
NUMBER_OF_FRAMES : 20241
NUMBER_OF_BYTES : 15545088
_STATISTICS_WRITING_APP : mkvmerge v8.6.1 ('Flying') 32bit
_STATISTICS_WRITING_DATE_UT : 2017-01-27 18:21:36
_STATISTICS_TAGS : BPS DURATION NUMBER_OF_FRAMES NUMBER_OF_BYTES

Video
ID : 1
Format : AVC
Format/Info : Advanced Video Codec
Format profile : High@L4.1
Format settings, CABAC : Yes
Format settings, ReFrames : 5 frames
Codec ID : V_MPEG4/ISO/AVC
Duration : 10mn 47s
Bit rate : 1 872 Kbps
Width : 1 280 pixels
Height : 720 pixels
Display aspect ratio : 16:9
Frame rate mode : Constant
Frame rate : 25.000 fps
Color space : YUV
Chroma subsampling : 4:2:0
Bit depth : 8 bits
Scan type : Progressive
Bits/(Pixel*Frame) : 0.081
Stream size : 145 MiB (89%)
Writing library : x264 core 148 r2744 b97ae06
Encoding settings : cabac=1 / ref=5 / deblock=1:-2:-1 / analyse=0x3:0x113 / me=umh / subme=8 / psy=1 / psy_rd=1.00:0.00 / mixed_ref=1 / me_range=16 / chroma_me=1 / trellis=2 / 8x8dct=1 / cqm=0 / deadzone=21,11 / fast_pskip=1 / chroma_qp_offset=-2 / threads=12 / lookahead_threads=2 / sliced_threads=0 / nr=0 / decimate=1 / interlaced=0 / bluray_compat=0 / constrained_intra=0 / bframes=3 / b_pyramid=2 / b_adapt=2 / b_bias=0 / direct=3 / weightb=1 / open_gop=0 / weightp=2 / keyint=250 / keyint_min=25 / scenecut=40 / intra_refresh=0 / rc_lookahead=50 / rc=crf / mbtree=1 / crf=19.0 / qcomp=0.60 / qpmin=0 / qpmax=69 / qpstep=4 / ip_ratio=1.40 / aq=1:1.00
Default : Yes
Forced : No
Matrix coefficients : BT.709
Color range : Limited
DURATION : 00:10:47.720000000
NUMBER_OF_FRAMES : 16193
NUMBER_OF_BYTES : 154806719
_STATISTICS_WRITING_APP : mkvmerge v8.6.1 ('Flying') 32bit
_STATISTICS_WRITING_DATE_UT : 2017-01-27 18:21:36
_STATISTICS_TAGS : BPS DURATION NUMBER_OF_FRAMES NUMBER_OF_BYTES

Audio
ID : 2
Format : AC-3
Format/Info : Audio Coding 3
Mode extension : CM (complete main)
Format settings, Endianness : Big
Codec ID : A_AC3
Duration : 10mn 47s
Bit rate mode : Constant
Bit rate : 192 Kbps
Channel(s) : 2 channels
Channel positions : Front: L R
Sampling rate : 48.0 KHz
Bit depth : 16 bits
Compression mode : Lossy
Stream size : 14.8 MiB (9%)
Default : Yes
Forced : No


S1E11 - Zagraj w to jeszcze raz, Cyborgu!
Kod:
Tekst widoczny dla zalogowanych.


S1E12 - Odpych
Kod:
Tekst widoczny dla zalogowanych.
_____
Obraz
Sygnatura•••
Podziękowania dla autora posta:
yenx