Jeźdźcy smoków: Obrońcy Berk / Dragons: Defenders of Berk (2013)
OdpowiedzPosty: 11
Strona z 212
Jeźdźcy smoków: Obrońcy Berk / Dragons: Defenders of Berk (2013)
Premiera:
14-03-2013 (Polska)  07-08-2012 (Świat)
Gatunek:
Animowany Przygodowy
Produkcja:
USA
Sezony:
2
Odcinki:
40*
Czas trwania:
~22 min. (odcinek)
Posty w temacie:
12  11 / 1
Serial opowiada o chłopaku – Czkawce, jego przyjacielu, smoku – Szczerbatku i grupie młodych trenerów smoków, którzy próbują zintegrować dzikie bestie z mieszkańcami wyspy Berek. Podczas poznawania niezwykłego smoczego świata, o którym im się nie śniło, nie tylko nauczą się smoczych zwyczajów i charakterów, ale odkryją też nowe gatunki i będą musieli stawić czoła przeciwnikom smoków.
Ukryto 1 post, ponieważ linki wygasły.   pokaż wszystkie
Robert202

Płeć:
Dołączył: 12 wrz 2011
Punkty: 326$
Podziękowania: 35
Posty: 89

Nie ma w serwisie
S02E02 Web-DL ENG

1080p
Kod:
Tekst widoczny dla zalogowanych.

720p
Kod:
Tekst widoczny dla zalogowanych.
PaprykaPL

Płeć:
Dołączył: 07 sie 2009
Punkty: 522$
Podziękowania: 91
Posty: 301

Nie ma w serwisie
Same napisy do wersji Web-DL 720p-1080p E01
Kod:
Tekst widoczny dla zalogowanych.

Odcinek z wtopionymi napisami na chomiku
_____
Obraz
•••
Robert202

Płeć:
Dołączył: 12 wrz 2011
Punkty: 326$
Podziękowania: 35
Posty: 89

Nie ma w serwisie
S02E03 Web-DL ENG

1080p
Kod:
Tekst widoczny dla zalogowanych.


720p
Kod:
Tekst widoczny dla zalogowanych.
Nillay

Płeć:
Dołączył: 28 lis 2009
Punkty: 71634$
Podziękowania: 5602
Posty: 3391

Nie ma w serwisie
ODCINEK 21: ŻYJ I POZWÓL LATAĆ
Dubbing PL | 1280x720 | 606,6 MB
Obraz

Obraz
Kod:
Tekst widoczny dla zalogowanych.
_____
Zabraniam reuploadowania moich plików!
Informacje o uploadach znajdziesz w mojej ramówce - zanim zapytasz, sprawdź ją!
•••
Podziękowania dla autora posta:
kimiko95, BOJADALU, piterman, bodzioaz, tadeusza
Nillay

Płeć:
Dołączył: 28 lis 2009
Punkty: 71634$
Podziękowania: 5602
Posty: 3391

Nie ma w serwisie
ODCINEK 22: GRONKIELOWE ŻELAZO
Dubbing PL | 1280x720 | 604,2 MB
Obraz

Obraz
Kod:
Tekst widoczny dla zalogowanych.
_____
Zabraniam reuploadowania moich plików!
Informacje o uploadach znajdziesz w mojej ramówce - zanim zapytasz, sprawdź ją!
•••
Podziękowania dla autora posta:
kimiko95, piterman, bodzioaz, tadeusza
Nillay

Płeć:
Dołączył: 28 lis 2009
Punkty: 71634$
Podziękowania: 5602
Posty: 3391

Nie ma w serwisie
ODCINEK 23: NOC I WRZASK
Dubbing PL | 1280x720 | 606,6 MB
Obraz

Obraz
Kod:
Tekst widoczny dla zalogowanych.
_____
Zabraniam reuploadowania moich plików!
Informacje o uploadach znajdziesz w mojej ramówce - zanim zapytasz, sprawdź ją!
•••
Podziękowania dla autora posta:
kimiko95, piterman, AnhelMoss, bodzioaz
Nillay

Płeć:
Dołączył: 28 lis 2009
Punkty: 71634$
Podziękowania: 5602
Posty: 3391

Nie ma w serwisie
ODCINEK 24: NIESPODZIANKA SPOD SPODU
Dubbing PL | 1280x720 | 602,1 MB
Obraz

Obraz
Kod:
Tekst widoczny dla zalogowanych.
_____
Zabraniam reuploadowania moich plików!
Informacje o uploadach znajdziesz w mojej ramówce - zanim zapytasz, sprawdź ją!
•••
Podziękowania dla autora posta:
piterman, AR3S, AnhelMoss, bodzioaz, kimiko95
Nillay

Płeć:
Dołączył: 28 lis 2009
Punkty: 71634$
Podziękowania: 5602
Posty: 3391

Nie ma w serwisie
ODCINEK 25: GDZIE ZIMUJĄ OGNIGLISTY
Dubbing PL | 1280x720 | 603,7 MB
Obraz

Obraz
Kod:
Tekst widoczny dla zalogowanych.
_____
Zabraniam reuploadowania moich plików!
Informacje o uploadach znajdziesz w mojej ramówce - zanim zapytasz, sprawdź ją!
•••
Podziękowania dla autora posta:
piterman, kimiko95, bodzioaz, AR3S, BOJADALU
Robert202

Płeć:
Dołączył: 12 wrz 2011
Punkty: 326$
Podziękowania: 35
Posty: 89

Nie ma w serwisie
Odcinki 5-8 1080p Web-DL PL / Odcinki 25-28 z poprzedniej numeracji
Kod:
Tekst widoczny dla zalogowanych.
Podziękowania dla autora posta:
avancada, BOJADALU, bodzioaz, AR3S
MojeGBA

Płeć:
Dołączył: 17 cze 2009
Punkty: 4$
Podziękowania: 199
Posty: 495

Jest w serwisie
Obrońcy Berk / Dragons: Defenders of Berk

MKV 1080p - Dubbing PL, Dubbing EN, PL Napisy, EN Napisy
Dane Techniczne

Complete name : BajkiTV_DDoB.S02E08.mkv
Format : Matroska
Format version : Version 4 / Version 2
File size : 923 MiB
Duration : 22mn 37s
Overall bit rate : 5 707 Kbps
Movie name : Dragons.Riders.of.Berk.S02E08.Appetite.for.Destruction.1080p.PL.ENG.MojeGBA.BajkiTV.PL

Video
Format : AVC
Format/Info : Advanced Video Codec
Codec ID : V_MPEG4/ISO/AVC
Duration : 22mn 37s
Width : 1 912 pixels
Height : 1 072 pixels
Display aspect ratio : 16:9
Frame rate mode : Constant
Frame rate : 23.976 fps

Audio #1
Format : AC-3
Format/Info : Audio Coding 3
Codec ID : A_AC3
Duration : 22mn 37s
Bit rate mode : Constant
Bit rate : 192 Kbps
Channel(s) : 2 channels
Channel positions : Front: L R
Sampling rate : 48.0 KHz
Stream size : 31.1 MiB (3%)
Title : PL 2.0
Language : Polish
Default : Yes
Forced : No

Audio #2
Format : AC-3
Format/Info : Audio Coding 3
Codec ID : A_AC3
Duration : 22mn 37s
Bit rate mode : Constant
Bit rate : 384 Kbps
Channel(s) : 6 channels
Channel positions : Front: L C R, Side: L R, LFE
Sampling rate : 48.0 KHz
Stream size : 62.1 MiB (7%)
Title : 5.1
Language : English

Audio #3
Format : AAC
Format/Info : Advanced Audio Codec
Codec ID : A_AAC
Duration : 22mn 37s
Channel(s) : 2 channels
Channel positions : Front: L R
Sampling rate : 48.0 KHz
Title : 2.0
Language : English

Text #1
Format : UTF-8
Codec ID : S_TEXT/UTF8
Language : English

Text #2
Format : UTF-8
Codec ID : S_TEXT/UTF8
Language : Polish


Screeny
Obraz

Obraz Obraz Obraz


Download
Mega
Odcinek 1Kod:
Tekst widoczny dla zalogowanych.

Odcinek 2Kod:
Tekst widoczny dla zalogowanych.

Odcinek 3Kod:
Tekst widoczny dla zalogowanych.

Odcinek 4Kod:
Tekst widoczny dla zalogowanych.

Odcinek 5Kod:
Tekst widoczny dla zalogowanych.

Odcinek 6Kod:
Tekst widoczny dla zalogowanych.

Odcinek 7Kod:
Tekst widoczny dla zalogowanych.

Odcinek 8Kod:
Tekst widoczny dla zalogowanych.

Odcinek 9Kod:
Tekst widoczny dla zalogowanych.

Odcinek 10Kod:
Tekst widoczny dla zalogowanych.


Uploaded
Odcinek 1Kod:
Tekst widoczny dla zalogowanych.

Odcinek 2Kod:
Tekst widoczny dla zalogowanych.

Odcinek 3Kod:
Tekst widoczny dla zalogowanych.

Odcinek 4Kod:
Tekst widoczny dla zalogowanych.

Odcinek 5Kod:
Tekst widoczny dla zalogowanych.

Odcinek 6Kod:
Tekst widoczny dla zalogowanych.

Odcinek 7Kod:
Tekst widoczny dla zalogowanych.

Odcinek 8Kod:
Tekst widoczny dla zalogowanych.

Odcinek 9Kod:
Tekst widoczny dla zalogowanych.

Odcinek 10Kod:
Tekst widoczny dla zalogowanych.
_____
Obraz
Obraz
Obraz
Obraz
Obecnie Oglądam: Code Geass [ 39 / 50 ], Czytam: Krew Olimpu [0/494]
•••
OdpowiedzPosty: 11
Strona z 212

Emotikony Cytuj