Zaloguj
Jej Wysokość Zosia

Sofia the First
Kreskówka, 2013
8,25  głosy: 8Oceń:
Ulubiony
Do obejrzenia
Obejrzany
Premiera:
11 maja 2013Polska11 stycznia 2013
Produkcja:

Dodaj sezon
Jest w serwisieyenxKopiuj nick
yenx

Płeć:
Dołączył:
Punkty: 106759$
Podziękowania: 2231
Posty: 5459
Dubbing PL / PL
ocenił na: 0
Jej Wysokość Zosia / Sofia the First (aka Księżniczka Zosia / Princess Sofia) (2017) S04 Multi.1080p.WEB-DL.AAC2.0.H264.CC | Audio: Dubbing PL + Angielski

Ogólne
Unique ID : 229562715560772878203077332960070736637 (0xACB42BB9A2E09141B363BF5BE77E1AFD)
Complete name : Sofia.the.First.S04E01.Day.of.the.Sorcerers.Multi.1080p.WEB-DL.AAC2.0.H264.CC.mkv
Format : Matroska
Format version : Version 4 / Version 2
File size : 930 MiB
Duration : 23 min 59s
Overall bit rate : 5.418 kb/s
Encoded date : UTC 2017-09-30 17:14:14
Writing application : mkvmerge v15.0.0 ('Duel with the Devil') 64-bit
Writing library : libebml v1.3.5 + libmatroska v1.4.5

Wideo
ID : 1
Format : AVC
Format/Info : Advanced Video Codec
Format profile : High@L4
Format settings, CABAC : Tak
Format settings, ReFrames : 4 klatki
Codec ID : V_MPEG4/ISO/AVC
Duration : 23 min 59s
Bit rate : 5.097 kb/s
Width : 1.920 pikseli
Height : 1.080 pikseli
Display aspect ratio : 16:9
Frame rate mode : Stały
Frame rate : 23,976 (24000/1001) kl/s
Color space : YUV
Chroma subsampling : 4:2:0
Bit depth : 8 bitów
Scan type : Progresywny
Bits/(Pixel*Frame) : 0.103
Stream size : 875 MiB (94%)
Language : Angielski
Default : Tak
Forced : Nie
Color range : Limited
Color primaries : BT.709
Transfer characteristics : BT.709
Matrix coefficients : BT.709

Audio #1
ID : 2
Format : AAC
Format/Info : Advanced Audio Codec
Format profile : LC
Codec ID : A_AAC
Duration : 23 min 59s
Bit rate : 192 kb/s
Channel(s) : 2 kanały
Channel positions : Front: L R
Sampling rate : 48,0 kHz
Frame rate : 46,875 kl/s (1024 SPF)
Stream size : 33,0 MiB (4%)
Language : Polski
Default : Tak
Forced : Nie

Audio #2
ID : 3
Format : AAC
Format/Info : Advanced Audio Codec
Format profile : LC
Codec ID : A_AAC
Duration : 23 min 59s
Bit rate : 126 kb/s
Channel(s) : 2 kanały
Channel positions : Front: L R
Sampling rate : 48,0 kHz
Frame rate : 46,875 kl/s (1024 SPF)
Stream size : 21,6 MiB (2%)
Language : Angielski
Default : Nie
Forced : Nie

Tekst
ID : 4
Format : UTF-8
Codec ID : S_TEXT/UTF8
Codec ID/Info : UTF-8 Plain Text
Duration : 23 min 28s
Bit rate : 108 b/s
Count of elements : 445
Stream size : 18,7 KiB (0%)
Title : CC
Language : Angielski
Default : Nie
Forced : Nie

Kod:
Tekst widoczny dla zalogowanych.

Kod:
Tekst widoczny dla zalogowanych.
_____
Jeżeli pobrałeś albo spodobał Ci się mój post lub obejrzałeś moje materiały kliknij dziękuję to nic Cię nie kosztuje i za wszystkie bardzo dziękuje!!! :dziękuję:

Obraz
Sygnatura•••
Podziękowania dla autora posta:
schizoid, anex33
Nie ma w serwisiegucio1304Kopiuj nick
gucio1304

Płeć:
Dołączył:
Punkty: 1886$
Podziękowania: 164
Posty: 239
Dubbing PL / PL
ocenił na: 0
1 - Zamach czarnoksiężników :nowe:
Kod:
Tekst widoczny dla zalogowanych.
Podziękowania dla autora posta:
tordar2
Nie ma w serwisiegucio1304Kopiuj nick
gucio1304

Płeć:
Dołączył:
Punkty: 1886$
Podziękowania: 164
Posty: 239
Dubbing PL / PL
ocenił na: 0
2 - Sekretna biblioteka: Opowieść o wiecznym zniczu :nowe:
Kod:
Tekst widoczny dla zalogowanych.
Nie ma w serwisiegucio1304Kopiuj nick
gucio1304

Płeć:
Dołączył:
Punkty: 1886$
Podziękowania: 164
Posty: 239
Dubbing PL / PL
ocenił na: 0
3 - Kwiatowa korona :nowe:
Kod:
Tekst widoczny dla zalogowanych.
Podziękowania dla autora posta:
tordar2
Nie ma w serwisiegucio1304Kopiuj nick
gucio1304

Płeć:
Dołączył:
Punkty: 1886$
Podziękowania: 164
Posty: 239
Dubbing PL / PL
ocenił na: 0
4 - Podejrzany dżinn :nowe:
Kod:
Tekst widoczny dla zalogowanych.
Podziękowania dla autora posta:
marcin81, tordar2
Jest w serwisieyenxKopiuj nick
yenx

Płeć:
Dołączył:
Punkty: 106759$
Podziękowania: 2231
Posty: 5459
Dubbing PL / PL
ocenił na: 0
Jej Wysokość Zosia / Sofia the First (2012-2017)
PL.DUB.1080p.WEB-DL.H.264-eend / Dubbing PL *SEZON 4*


~# DANE TECHNiCZNE / RELEASE .iNFO #~

Dane techniczne przykładowego odcinka:
Rozmiar pliku: 887.4 MiB , Czas trwania: 00:22:05 , Ogólne bitrate pliku: 5 617 Kbps , Format: Matroska , Video FPS: 23.976 , Video rozdzielczość: 1920x1080 , Video proporcje obrazu: 16:9 , Audio format: AAC , Audio format wynik: Advanced Audio Codec , Audio liczba kanałów: 2 , Audio sampling rate: 48.0 KHz


~# ZDJĘCiA / SCREENS #~



~# POBiERZ / DOWNLOAD #~

Obraz
Kod:
Tekst widoczny dla zalogowanych.

Obraz
Kod:
Tekst widoczny dla zalogowanych.

Obraz
Kod:
Tekst widoczny dla zalogowanych.
_____
Jeżeli pobrałeś albo spodobał Ci się mój post lub obejrzałeś moje materiały kliknij dziękuję to nic Cię nie kosztuje i za wszystkie bardzo dziękuje!!! :dziękuję:

Obraz
Sygnatura•••
Podziękowania dla autora posta:
anex33
Nie ma w serwisiegucio1304Kopiuj nick
gucio1304

Płeć:
Dołączył:
Punkty: 1886$
Podziękowania: 164
Posty: 239
Dubbing PL / PL
ocenił na: 0
5-7 - Wyspy magiczne :nowe:
Kod:
Tekst widoczny dla zalogowanych.
Podziękowania dla autora posta:
anex33, tordar2
Nie ma w serwisiegucio1304Kopiuj nick
gucio1304

Płeć:
Dołączył:
Punkty: 1886$
Podziękowania: 164
Posty: 239
Dubbing PL / PL
ocenił na: 0
9 - Wyspy magiczne: Księżniczka i opiekunka :nowe:
Kod:
Tekst widoczny dla zalogowanych.
Podziękowania dla autora posta:
tordar2, marcin81
Nie ma w serwisiegucio1304Kopiuj nick
gucio1304

Płeć:
Dołączył:
Punkty: 1886$
Podziękowania: 164
Posty: 239
Dubbing PL / PL
ocenił na: 0
11 - Urocze straszydło :nowe:
Kod:
Tekst widoczny dla zalogowanych.