Zaloguj
Hotel Transylvania: Serial

Hotel Transylvania: The Series
Kreskówka, 2017
10,00  głosy: 1Oceń:
Ulubiony
Do obejrzenia
Obejrzany
Ocena IMDB5,8/10
Premiera:
30 października 2017Polska25 czerwca 2017
Produkcja:

Dodaj sezon
Jest w serwisieyenxKopiuj nick
yenx

Płeć:
Dołączył:
Punkty: 106763$
Podziękowania: 2231
Posty: 5459
Dubbing PL / PL
ocenił na: 0
Hotel Transylvania: Serial / Hotel Transylvania: The Series (2017) S01 Multi.1080p.WEB-DL.DD2.0.DD5.1.H.264-iT00NZ | Audio: Dubbing PL + Angielski

Ogólne
Unique ID : 231202573640432421117470876159610299561 (0xADEFFEF880B161388EA875CAE099A4A9)
Complete name : Hotel.Transylvania.The.Series.S01E01E02.Enter.The.Nose.Picker_Hide.&.Shriek.Multi.1080p.WEB-DL.DD2.0.DD5.1.H.264-iT00NZ.mkv
Format : Matroska
Format version : Version 4 / Version 2
File size : 917 MiB
Duration : 22 min 41s
Overall bit rate : 5.649 kb/s
Encoded date : UTC 2017-10-30 19:56:17
Writing application : mkvmerge v17.0.0 ('Be Ur Friend') 64-bit
Writing library : libebml v1.3.5 + libmatroska v1.4.8

Wideo
ID : 1
Format : AVC
Format/Info : Advanced Video Codec
Format profile : High@L4
Format settings : CABAC / 4 Ref Frames
Format settings, CABAC : Tak
Format settings, ReFrames : 4 klatki
Codec ID : V_MPEG4/ISO/AVC
Duration : 22 min 41s
Bit rate : 5.071 kb/s
Width : 1.912 pikseli
Height : 1.072 piksele
Display aspect ratio : 16:9
Frame rate mode : Stały
Frame rate : 23,976 (24000/1001) kl/s
Color space : YUV
Chroma subsampling : 4:2:0
Bit depth : 8 bitów
Scan type : Progresywny
Bits/(Pixel*Frame) : 0.103
Stream size : 823 MiB (90%)
Language : Angielski
Default : Tak
Forced : Nie
Color range : Limited
Color primaries : BT.709
Transfer characteristics : BT.709
Matrix coefficients : BT.709

Audio #1
ID : 2
Format : AC-3
Format/Info : Audio Coding 3
Format settings, Endianness : Big
Codec ID : A_AC3
Duration : 22 min 41s
Bit rate mode : Stała
Bit rate : 192 kb/s
Channel(s) : 2 kanały
Channel positions : Front: L R
Sampling rate : 48,0 kHz
Frame rate : 31,250 kl/s (1536 SPF)
Bit depth : 16 bitów
Stream size : 31,2 MiB (3%)
Language : Polski
Service kind : Complete Main
Default : Tak
Forced : Nie

Audio #2
ID : 3
Format : AC-3
Format/Info : Audio Coding 3
Format settings, Endianness : Big
Codec ID : A_AC3
Duration : 22 min 41s
Bit rate mode : Stała
Bit rate : 384 kb/s
Channel(s) : 6 kanałów
Channel positions : Front: L C R, Side: L R, LFE
Sampling rate : 48,0 kHz
Frame rate : 31,250 kl/s (1536 SPF)
Bit depth : 16 bitów
Stream size : 62,3 MiB (7%)
Language : Angielski
Service kind : Complete Main
Default : Nie
Forced : Nie

Tekst
ID : 4
Format : UTF-8
Codec ID : S_TEXT/UTF8
Codec ID/Info : UTF-8 Plain Text
Duration : 22 min 2s
Bit rate : 81 b/s
Count of elements : 456
Stream size : 13,2 KiB (0%)
Default : Nie
Forced : Nie

Kod:
Tekst widoczny dla zalogowanych.

Kod:
Tekst widoczny dla zalogowanych.
_____
Jeżeli pobrałeś albo spodobał Ci się mój post lub obejrzałeś moje materiały kliknij dziękuję to nic Cię nie kosztuje i za wszystkie bardzo dziękuje!!! :dziękuję:

Obraz
Sygnatura•••
Podziękowania dla autora posta:
rotfly, fefes
Jest w serwisieyenxKopiuj nick
yenx

Płeć:
Dołączył:
Punkty: 106763$
Podziękowania: 2231
Posty: 5459
Dubbing PL / PL
ocenił na: 0
Hotel Transylwania Serial / Hotel Transylvania: The Series (2017)
PL.DUB.1080p.WEB-DL.H.264-eend / DUBBING PL *SEZON 1*


~# DANE TECHNiCZNE / RELEASE .iNFO #~

Dane techniczne przykładowego odcinka:
Rozmiar pliku: 875.7 MiB , Czas trwania: 00:22:41 , Ogólne bitrate pliku: 5 394 Kbps , Format: Matroska , Video FPS: 23.976 , Video bitrate: 4 967 Kbps , Video rozdzielczość: 1912x1072 , Video rozmiar: 806 MiB (92%) , Video proporcje obrazu: 16:9 , Audio format: MPEG Audio , Audio bitrate: 320 Kbps , Audio liczba kanałów: 2 , Audio sampling rate: 48.0 KHz , Audio resolution: Audio rozmiar: 51.9 MiB (6%)


~# ZDJĘCiA / SCREENS #~



~# POBiERZ / DOWNLOAD #~

Obraz
Kod:
Tekst widoczny dla zalogowanych.

Obraz
Kod:
Tekst widoczny dla zalogowanych.

Obraz
Kod:
Tekst widoczny dla zalogowanych.
_____
Jeżeli pobrałeś albo spodobał Ci się mój post lub obejrzałeś moje materiały kliknij dziękuję to nic Cię nie kosztuje i za wszystkie bardzo dziękuje!!! :dziękuję:

Obraz
Sygnatura•••
Podziękowania dla autora posta:
fefes, zuz1a