Zaloguj
Elena z Avaloru

Elena of Avalor
Kreskówka, 2016
10,00  głosy: 2Oceń:
Ulubiony
Do obejrzenia
Obejrzany
Premiera:
30 października 2016Polska22 lipca 2016
Produkcja:

Dodaj sezon
Nie ma w serwisiegrzegorzjKopiuj nick
grzegorzj

Płeć:
Dołączył:
Punkty: 818$
Podziękowania: 120
Posty: 244
Dubbing PL / PL
ocenił na: 0
Elena z Avaloru.S01E06-10.PLDUB.WEBRip.XviD.avi

PRZYKŁADOWE DANE ODCINKA:
Rozmiar: 220 MB
Czas trwania: 00:22:30
Format: AVI. kodek: XVID
Video bitrate: 1 200 Kbps
Video rozdzielczość: 640x360
Audio bitrate: 128 Kbps


Kod:
Tekst widoczny dla zalogowanych.

Kod:
Tekst widoczny dla zalogowanych.

Kod:
Tekst widoczny dla zalogowanych.
Podziękowania dla autora posta:
kasq997, anex33, sokolnic
Nie ma w serwisiegrzegorzjKopiuj nick
grzegorzj

Płeć:
Dołączył:
Punkty: 818$
Podziękowania: 120
Posty: 244
Dubbing PL / PL
ocenił na: 0
Elena z Avaloru.S01E11.PLDUB.WEBRip.XviD.avi

Rozmiar pliku: 511.2 MB
Czas trwania: 01:00:23
Format: AVI.Video kodek: XviD
Video bitrate: 1 043 Kbps
Video rozdzielczość: 640x360
Audio bitrate: 128 Kbps


Kod:
Tekst widoczny dla zalogowanych.
Podziękowania dla autora posta:
anex33, sokolnic
Nie ma w serwisietadeuszaKopiuj nick
tadeusza

Płeć:
Dołączył:
Punkty: 116057$
Podziękowania: 388
Posty: 9229
Dubbing PL / PL
ocenił na: 0
Elena z Avaloru / Elena of Avalor (2016-) 1080p.WEB-DL.PL.DUB.H.264-eend Sezon 1/ Dubbing PL
Format: MATROSKA,WEBM at 5 403 Kbp/s
Length: 945 MiB for 0h 24min 27sec

Video: H264 Visual at Kbp/s
Aspect: 1920x1080 at 24.00 fps

Audio: AC3 at 192 Kbp/s
Info: 2 channels stereo, 48.00 KHz


Kod:
Tekst widoczny dla zalogowanych.


Kod:
Tekst widoczny dla zalogowanych.


Kod:
Tekst widoczny dla zalogowanych.
_____
www.2.bp.blogspot.com/-CEmYgPzHvrI/UeVL ... /sign3.png Jest miło,kiedy ktoś podziękuje!
Sygnatura•••
Podziękowania dla autora posta:
rotfly, kronas44, schizoid, Florianek, anex33
Jest w serwisieyenxKopiuj nick
yenx

Płeć:
Dołączył:
Punkty: 106761$
Podziękowania: 2231
Posty: 5459
Dubbing PL / PL
ocenił na: 0
Elena z Avaloru / Elena of Avalor (2016) S01E01E15 Multi.1080p.WEB-DL.DD5.1.AAC2.0.H264.CC | Dubbing PL + Angielski

Ogólne
Unique ID : 197556359139575455439398807815688851048 (0x949FF884D923F3DDB226B1B17DA48E68)
Complete name : Elena.of.Avalor.S01E01.First.Day.of.Rule.Multi.1080p.WEB-DL.AAC2.0.H264.CC.mkv
Format : Matroska
Format version : Version 4 / Version 2
File size : 972 MiB
Duration : 24 min 27s
Overall bit rate : 5.559 kb/s
Encoded date : UTC 2016-10-30 16:31:38
Writing application : mkvmerge v9.4.2 ('So High') 64bit
Writing library : libebml v1.3.4 + libmatroska v1.4.5

Wideo
ID : 1
Format : AVC
Format/Info : Advanced Video Codec
Format profile : High@L4
Format settings, CABAC : Tak
Format settings, ReFrames : 4 klatki
Codec ID : V_MPEG4/ISO/AVC
Duration : 24 min 27s
Bit rate : 5.207 kb/s
Width : 1.920 pikseli
Height : 1.080 pikseli
Display aspect ratio : 16:9
Frame rate mode : Stały
Frame rate : 23,976 (24000/1001) kl/s
Color space : YUV
Chroma subsampling : 4:2:0
Bit depth : 8 bitów
Scan type : Progresywny
Bits/(Pixel*Frame) : 0.105
Stream size : 911 MiB (94%)
Language : Angielski
Default : Tak
Forced : Nie
Color range : Limited
Color primaries : BT.709
Transfer characteristics : BT.709
Matrix coefficients : BT.709

Audio #1
ID : 2
Format : AC-3
Format/Info : Audio Coding 3
Format settings, Endianness : Big
Codec ID : A_AC3
Duration : 24 min 27s
Bit rate mode : Stała
Bit rate : 192 kb/s
Channel(s) : 2 kanały
Channel positions : Front: L R
Sampling rate : 48,0 kHz
Frame rate : 31,250 kl/s (1536 spf)
Bit depth : 16 bitów
Stream size : 33,6 MiB (3%)
Language : Polski
Service kind : Complete Main
Default : Tak
Forced : Nie

Audio #2
ID : 3
Format : AAC
Format/Info : Advanced Audio Codec
Format profile : LC
Codec ID : A_AAC
Duration : 24 min 27s
Bit rate : 157 kb/s
Channel(s) : 2 kanały
Channel positions : Front: L R
Sampling rate : 48,0 kHz
Frame rate : 46,875 kl/s (1024 spf)
Stream size : 27,5 MiB (3%)
Language : Angielski
Default : Nie
Forced : Nie

Tekst
ID : 4
Format : UTF-8
Codec ID : S_TEXT/UTF8
Codec ID/Info : UTF-8 Plain Text
Duration : 23 min 36s
Bit rate : 133 b/s
Count of elements : 530
Stream size : 23,1 KiB (0%)
Title : CC
Language : Angielski
Default : Nie
Forced : Nie

Kod:
Tekst widoczny dla zalogowanych.

Kod:
Tekst widoczny dla zalogowanych.
_____
Jeżeli pobrałeś albo spodobał Ci się mój post lub obejrzałeś moje materiały kliknij dziękuję to nic Cię nie kosztuje i za wszystkie bardzo dziękuje!!! :dziękuję:

Obraz
Sygnatura•••
Podziękowania dla autora posta:
rotfly, schizoid, zigii
Jest w serwisieyenxKopiuj nick
yenx

Płeć:
Dołączył:
Punkty: 106761$
Podziękowania: 2231
Posty: 5459
Dubbing PL / PL
ocenił na: 0
Elena z Avaloru / Elena of Avalor (2016) S01E16-E20 Multi.1080p.WEB-DL.DD5.1.AAC2.0.H264.CC | Dubbing PL + Angielski
Ogólne
Unique ID : 174757785955132274326085621188967299292 (0x8379201391593614825AC110B63C78DC)
Complete name : Elena.of.Avalor.S01E16.Captain.Turner.Returns.Multi.1080p.WEB-DL.AAC2.0.H264.CC.mkv
Format : Matroska
Format version : Version 4 / Version 2
File size : 880 MiB
Duration : 22 min 37s
Overall bit rate : 5.438 kb/s
Encoded date : UTC 2017-09-24 21:44:37
Writing application : mkvmerge v15.0.0 ('Duel with the Devil') 64-bit
Writing library : libebml v1.3.5 + libmatroska v1.4.5

Wideo
ID : 1
Format : AVC
Format/Info : Advanced Video Codec
Format profile : High@L4
Format settings, CABAC : Tak
Format settings, ReFrames : 4 klatki
Codec ID : V_MPEG4/ISO/AVC
Duration : 22 min 37s
Bit rate : 5.117 kb/s
Width : 1.920 pikseli
Height : 1.080 pikseli
Display aspect ratio : 16:9
Frame rate mode : Stały
Frame rate : 23,976 (24000/1001) kl/s
Color space : YUV
Chroma subsampling : 4:2:0
Bit depth : 8 bitów
Scan type : Progresywny
Bits/(Pixel*Frame) : 0.103
Stream size : 828 MiB (94%)
Language : Angielski
Default : Tak
Forced : Nie
Color range : Limited
Color primaries : BT.709
Transfer characteristics : BT.709
Matrix coefficients : BT.709

Audio #1
ID : 2
Format : AAC
Format/Info : Advanced Audio Codec
Format profile : LC
Codec ID : A_AAC
Duration : 22 min 37s
Bit rate : 192 kb/s
Channel(s) : 2 kanały
Channel positions : Front: L R
Sampling rate : 48,0 kHz
Frame rate : 46,875 kl/s (1024 SPF)
Stream size : 31,1 MiB (4%)
Language : Polski
Default : Tak
Forced : Nie

Audio #2
ID : 3
Format : AAC
Format/Info : Advanced Audio Codec
Format profile : LC
Codec ID : A_AAC
Duration : 22 min 37s
Bit rate : 125 kb/s
Channel(s) : 2 kanały
Channel positions : Front: L R
Sampling rate : 48,0 kHz
Frame rate : 46,875 kl/s (1024 SPF)
Stream size : 20,3 MiB (2%)
Language : Angielski
Default : Nie
Forced : Nie

Tekst
ID : 4
Format : UTF-8
Codec ID : S_TEXT/UTF8
Codec ID/Info : UTF-8 Plain Text
Duration : 22 min 1s
Bit rate : 123 b/s
Count of elements : 468
Stream size : 20,0 KiB (0%)
Title : CC
Language : Angielski
Default : Nie
Forced : Nie

Kod:
Tekst widoczny dla zalogowanych.

Kod:
Tekst widoczny dla zalogowanych.
_____
Jeżeli pobrałeś albo spodobał Ci się mój post lub obejrzałeś moje materiały kliknij dziękuję to nic Cię nie kosztuje i za wszystkie bardzo dziękuje!!! :dziękuję:

Obraz
Sygnatura•••
Podziękowania dla autora posta:
zigii, rotfly, schizoid, anex33
HEROES

Płeć:
Dołączył:
Punkty: 82234$
Podziękowania: 2252
Posty: 18836
Dubbing PL / PL
ocenił na: 0
Elena z Avaloru / Elena of Avalor (2016-) 1080p.WEB-DL.PL.DUB.H.264-eend / Dubbing PL

Dane techniczne przykładowego odcinka:
Rozmiar pliku: 864.1 MiB , Czas trwania: 00:22:36 , Ogólne bitrate pliku: 5 342 Kbps , Format: Matroska , Video FPS: 23.976 ,Video kodek: Video bitrate: 5 044 Kbps , Video rozdzielczość: 1920x1080 , Video rozmiar: 816 MiB (94%) , Video proporcje obrazu: 16:9 , Audio format: AC-3 , Audio format wynik: Audio Coding 3 , Audio bitrate: 128 Kbps , Audio liczba kanałów: 2 , Audio sampling rate: 48.0 KHz , Audio resolution: 16 bits , Audio rozmiar: 31.1 MiB (4%)

Kod:
Tekst widoczny dla zalogowanych.


Kod:
Tekst widoczny dla zalogowanych.
_____
Obraz
Sygnatura•••
Podziękowania dla autora posta:
Florianek, anex33, rotfly
Jest w serwisieyenxKopiuj nick
yenx

Płeć:
Dołączył:
Punkty: 106761$
Podziękowania: 2231
Posty: 5459
Dubbing PL / PL
ocenił na: 0
Elena z Avaloru / Elena of Avalor (2016) S01E21-... Multi.1080p.WEB-DL.DD5.1.AAC2.0.H264.CC | Dubbing PL + Angielski
Ogólne
Unique ID : 204047660709711518036562989376399265486 (0x998226655EFF87FC9A859BAA9168CECE)
Complete name : Elena.of.Avalor.S01E21.Realm.of.the.Jaquins.Multi.1080p.WEB-DL.AAC2.0.H264.CC.mkv
Format : Matroska
Format version : Version 4 / Version 2
File size : 1,77 GB
Duration : 43 min 43s
Overall bit rate : 5.797 kb/s
Encoded date : UTC 2017-11-11 19:12:01
Writing application : mkvmerge v17.0.0 ('Be Ur Friend') 64-bit
Writing library : libebml v1.3.5 + libmatroska v1.4.8

Wideo
ID : 1
Format : AVC
Format/Info : Advanced Video Codec
Format profile : High@L4
Format settings : CABAC / 4 Ref Frames
Format settings, CABAC : Tak
Format settings, ReFrames : 4 klatki
Codec ID : V_MPEG4/ISO/AVC
Duration : 43 min 43s
Bit rate : 5.092 kb/s
Width : 1.920 pikseli
Height : 1.080 pikseli
Display aspect ratio : 16:9
Frame rate mode : Stały
Frame rate : 23,976 (23976/1000) kl/s
Color space : YUV
Chroma subsampling : 4:2:0
Bit depth : 8 bitów
Scan type : Progresywny
Bits/(Pixel*Frame) : 0.102
Stream size : 1,56 GB (88%)
Language : Angielski
Default : Tak
Forced : Nie
Color range : Limited
Color primaries : BT.709
Transfer characteristics : BT.709
Matrix coefficients : BT.709

Audio #1
ID : 2
Format : AC-3
Format/Info : Audio Coding 3
Format settings, Endianness : Big
Codec ID : A_AC3
Duration : 43 min 43s
Bit rate mode : Stała
Bit rate : 192 kb/s
Channel(s) : 2 kanały
Channel positions : Front: L R
Sampling rate : 48,0 kHz
Frame rate : 31,250 kl/s (1536 SPF)
Bit depth : 16 bitów
Delay relative to video : -42 ms
Stream size : 60,1 MiB (3%)
Language : Polski
Service kind : Complete Main
Default : Tak
Forced : Nie

Audio #2
ID : 3
Format : AAC
Format/Info : Advanced Audio Codec
Format profile : LC
Codec ID : A_AAC-2
Duration : 43 min 43s
Bit rate : 126 kb/s
Channel(s) : 2 kanały
Channel positions : Front: L R
Sampling rate : 48,0 kHz
Frame rate : 46,875 kl/s (1024 SPF)
Delay relative to video : -42 ms
Stream size : 39,4 MiB (2%)
Language : Angielski
Default : Nie
Forced : Nie

Audio #3
ID : 4
Format : AC-3
Format/Info : Audio Coding 3
Format settings, Endianness : Big
Codec ID : A_AC3
Duration : 43 min 43s
Bit rate mode : Stała
Bit rate : 384 kb/s
Channel(s) : 6 kanałów
Channel positions : Front: L C R, Side: L R, LFE
Sampling rate : 48,0 kHz
Frame rate : 31,250 kl/s (1536 SPF)
Bit depth : 16 bitów
Delay relative to video : -42 ms
Stream size : 120 MiB (7%)
Language : Angielski
Service kind : Complete Main
Default : Nie
Forced : Nie

Tekst
ID : 5
Format : UTF-8
Codec ID : S_TEXT/UTF8
Codec ID/Info : UTF-8 Plain Text
Duration : 43 min 3s
Bit rate : 108 b/s
Count of elements : 845
Stream size : 34,3 KiB (0%)
Title : CC
Language : Angielski
Default : Nie
Forced : Nie

Kod:
Tekst widoczny dla zalogowanych.

Kod:
Tekst widoczny dla zalogowanych.
_____
Jeżeli pobrałeś albo spodobał Ci się mój post lub obejrzałeś moje materiały kliknij dziękuję to nic Cię nie kosztuje i za wszystkie bardzo dziękuje!!! :dziękuję:

Obraz
Sygnatura•••
Podziękowania dla autora posta:
Florianek, zigii