Zaloguj
Elena z Avaloru

Elena of Avalor
Kreskówka, 2016
10,00  głosy: 2Oceń:
Ulubiony
Do obejrzenia
Obejrzany
Premiera:
30 października 2016Polska22 lipca 2016
Produkcja:

Dodaj sezon
Jest w serwisieyenxKopiuj nick
yenx

Płeć:
Dołączył:
Punkty: 106759$
Podziękowania: 2231
Posty: 5459
Dubbing PL / PL
ocenił na: 0
Elena z Avaloru / Elena of Avalor (2016) S01E01E02 PL.1080p.WEB-DL.DD2.0.H264.CC | Dubbing PL

Ogólne
Unique ID : 219876126490823735455925418621250160069 (0xA56A9A02E17292A7B5125A761341C5C5)
Complete name : Elena.of.Avalor.S01E01.First.Day.of.Rule.PL.1080p.WEB-DL.DD2.0.H264.CC.mkv
Format : Matroska
Format version : Version 4 / Version 2
File size : 945 MiB
Duration : 24 min 27s
Overall bit rate : 5.401 kb/s
Encoded date : UTC 2016-10-30 16:32:33
Writing application : mkvmerge v9.4.2 ('So High') 64bit
Writing library : libebml v1.3.4 + libmatroska v1.4.5

Wideo
ID : 1
Format : AVC
Format/Info : Advanced Video Codec
Format profile : High@L4
Format settings, CABAC : Tak
Format settings, ReFrames : 4 klatki
Codec ID : V_MPEG4/ISO/AVC
Duration : 24 min 27s
Bit rate : 5.207 kb/s
Width : 1.920 pikseli
Height : 1.080 pikseli
Display aspect ratio : 16:9
Frame rate mode : Stały
Frame rate : 23,976 (24000/1001) kl/s
Color space : YUV
Chroma subsampling : 4:2:0
Bit depth : 8 bitów
Scan type : Progresywny
Bits/(Pixel*Frame) : 0.105
Stream size : 911 MiB (96%)
Language : Angielski
Default : Tak
Forced : Nie
Color range : Limited
Color primaries : BT.709
Transfer characteristics : BT.709
Matrix coefficients : BT.709

Audio
ID : 2
Format : AC-3
Format/Info : Audio Coding 3
Mode extension : CM (complete main)
Format settings, Endianness : Big
Codec ID : A_AC3
Duration : 24 min 27s
Bit rate mode : Stała
Bit rate : 192 kb/s
Channel(s) : 2 kanały
Channel positions : Front: L R
Sampling rate : 48,0 kHz
Frame rate : 31,250 kl/s (1536 spf)
Stream size : 33,6 MiB (4%)
Language : Polski
Default : Tak
Forced : Nie

Kod:
Tekst widoczny dla zalogowanych.

Kod:
Tekst widoczny dla zalogowanych.
_____
Jeżeli pobrałeś albo spodobał Ci się mój post lub obejrzałeś moje materiały kliknij dziękuję to nic Cię nie kosztuje i za wszystkie bardzo dziękuje!!! :dziękuję:

Obraz
Sygnatura•••
Podziękowania dla autora posta:
Mysz, zuz1a
Nie ma w serwisiegrzegorzjKopiuj nick
grzegorzj

Płeć:
Dołączył:
Punkty: 818$
Podziękowania: 120
Posty: 244
Dubbing PL / PL
ocenił na: 0
Elena z Avaloru.S01E01-02.PLDUB.WEBRip.XviD-GH.avi

Rozmiar: 356.8 MB
Czas trwania: 00:43:00
Format: AVI
Video kodek: XviD
Video bitrate: 1 024 Kbps
Video rozdzielczość: 640x360
Audio bitrate: 128 Kbps


Kod:
Tekst widoczny dla zalogowanych.
Podziękowania dla autora posta:
Mysz, anex33
Jest w serwisieyenxKopiuj nick
yenx

Płeć:
Dołączył:
Punkty: 106759$
Podziękowania: 2231
Posty: 5459
Dubbing PL / PL
ocenił na: 0
Elena z Avaloru / Elena of Avalor (2016) S01E03 PL.1080p.WEB-DL.DD2.0.H264.CC | Dubbing PL
Ogólne
Unique ID : 175380397655969913453971313271876137579 (0x83F109340BEAC5A1ABAA7535B560B26B)
Complete name : Elena.of.Avalor.S01E03.All.Heated.Up.PL.1080p.WEB-DLDD2.0.H264.CC.mkv
Format : Matroska
Format version : Version 4 / Version 2
File size : 855 MiB
Duration : 22 min 36s
Overall bit rate : 5.288 kb/s
Encoded date : UTC 2016-10-30 20:55:45
Writing application : mkvmerge v9.4.2 ('So High') 64bit
Writing library : libebml v1.3.4 + libmatroska v1.4.5

Wideo
ID : 1
Format : AVC
Format/Info : Advanced Video Codec
Format profile : High@L4
Format settings, CABAC : Tak
Format settings, ReFrames : 4 klatki
Codec ID : V_MPEG4/ISO/AVC
Duration : 22 min 36s
Bit rate : 5.094 kb/s
Width : 1.920 pikseli
Height : 1.080 pikseli
Display aspect ratio : 16:9
Frame rate mode : Stały
Frame rate : 23,976 (23976/1000) kl/s
Color space : YUV
Chroma subsampling : 4:2:0
Bit depth : 8 bitów
Scan type : Progresywny
Bits/(Pixel*Frame) : 0.102
Stream size : 824 MiB (96%)
Language : Angielski
Default : Tak
Forced : Nie
Color range : Limited
Color primaries : BT.709
Transfer characteristics : BT.709
Matrix coefficients : BT.709

Audio
ID : 2
Format : AC-3
Format/Info : Audio Coding 3
Mode extension : CM (complete main)
Format settings, Endianness : Big
Codec ID : A_AC3
Duration : 22 min 36s
Bit rate mode : Stała
Bit rate : 192 kb/s
Channel(s) : 2 kanały
Channel positions : Front: L R
Sampling rate : 48,0 kHz
Frame rate : 31,250 kl/s (1536 spf)
Stream size : 31,1 MiB (4%)
Language : Polski
Default : Tak
Forced : Nie

Kod:
Tekst widoczny dla zalogowanych.

Kod:
Tekst widoczny dla zalogowanych.
_____
Jeżeli pobrałeś albo spodobał Ci się mój post lub obejrzałeś moje materiały kliknij dziękuję to nic Cię nie kosztuje i za wszystkie bardzo dziękuje!!! :dziękuję:

Obraz
Sygnatura•••
Podziękowania dla autora posta:
Mysz, zuz1a
Nie ma w serwisiegrzegorzjKopiuj nick
grzegorzj

Płeć:
Dołączył:
Punkty: 818$
Podziękowania: 120
Posty: 244
Dubbing PL / PL
ocenił na: 0
Elena z Avaloru.S01E03.PLDUB.WEBRip.XviD.avi

Rozmiar pliku: 209.7 MB
Czas trwania: 00:22:00
Format: AVI. Video kodek: XviD
Video bitrate: 1 250 Kbps
Video rozdzielczość: 640x360
Audio bitrate: 128 Kbps


Kod:
Tekst widoczny dla zalogowanych.
Podziękowania dla autora posta:
Mysz, anex33
Jest w serwisieyenxKopiuj nick
yenx

Płeć:
Dołączył:
Punkty: 106759$
Podziękowania: 2231
Posty: 5459
Dubbing PL / PL
ocenił na: 0
Elena z Avaloru / Elena of Avalor (2016) S01E04 PL.1080p.WEB-DL.DD2.0.H264.CC | Dubbing PL
Ogólne
Unique ID : 212906020756958281568630488557787749496 (0xA02C35442E706050B96124DC1B631C78)
Complete name : Elena.of.Avalor.S01E04.Island.of.Youth.PL.1080p.WEB-DL.DD2.0.H264.CC.mkv
Format : Matroska
Format version : Version 4 / Version 2
File size : 856 MiB
Duration : 22 min 36s
Overall bit rate : 5.291 kb/s
Encoded date : UTC 2016-11-05 18:53:16
Writing application : mkvmerge v9.4.2 ('So High') 64bit
Writing library : libebml v1.3.4 + libmatroska v1.4.5

Wideo
ID : 1
Format : AVC
Format/Info : Advanced Video Codec
Format profile : High@L4
Format settings, CABAC : Tak
Format settings, ReFrames : 4 klatki
Codec ID : V_MPEG4/ISO/AVC
Duration : 22 min 36s
Bit rate : 5.097 kb/s
Width : 1.920 pikseli
Height : 1.080 pikseli
Display aspect ratio : 16:9
Frame rate mode : Stały
Frame rate : 23,976 (23976/1000) kl/s
Color space : YUV
Chroma subsampling : 4:2:0
Bit depth : 8 bitów
Scan type : Progresywny
Bits/(Pixel*Frame) : 0.103
Stream size : 824 MiB (96%)
Language : Angielski
Default : Tak
Forced : Nie
Color range : Limited
Color primaries : BT.709
Transfer characteristics : BT.709
Matrix coefficients : BT.709

Audio
ID : 2
Format : AC-3
Format/Info : Audio Coding 3
Mode extension : CM (complete main)
Format settings, Endianness : Big
Codec ID : A_AC3
Duration : 22 min 36s
Bit rate mode : Stała
Bit rate : 192 kb/s
Channel(s) : 2 kanały
Channel positions : Front: L R
Sampling rate : 48,0 kHz
Frame rate : 31,250 kl/s (1536 spf)
Stream size : 31,1 MiB (4%)
Language : Polski
Default : Tak
Forced : Nie

Kod:
Tekst widoczny dla zalogowanych.

Kod:
Tekst widoczny dla zalogowanych.
_____
Jeżeli pobrałeś albo spodobał Ci się mój post lub obejrzałeś moje materiały kliknij dziękuję to nic Cię nie kosztuje i za wszystkie bardzo dziękuje!!! :dziękuję:

Obraz
Sygnatura•••
Nie ma w serwisiegrzegorzjKopiuj nick
grzegorzj

Płeć:
Dołączył:
Punkty: 818$
Podziękowania: 120
Posty: 244
Dubbing PL / PL
ocenił na: 0
Elena z Avaloru.S01E04.PLDUB.WEBRip.XviD.avi

Rozmiar pliku: 226 MB
Czas trwania: 00:22:36
Format: AVI. kodek: XVID
Video bitrate: 1 194 Kbps
Video rozdzielczość: 640x360
Audio bitrate: 128 Kbps


Kod:
Tekst widoczny dla zalogowanych.
Podziękowania dla autora posta:
Mysz, anex33, Mpmp
Jest w serwisieyenxKopiuj nick
yenx

Płeć:
Dołączył:
Punkty: 106759$
Podziękowania: 2231
Posty: 5459
Dubbing PL / PL
ocenił na: 0
Elena z Avaloru / Elena of Avalor (2016) S01E05 PL.1080p.WEB-DL.DD2.0.H264.CC-DLxx | Dubbing PL
Ogólne
Unique ID : 251857741299737224334669530146055003370 (0xBD7A095C9E3A9D1DA6B6311AC37E1CEA)
Complete name : Elena.of.Avalor.S01E05.Spellbound.PL.1080p.WEB-DL.DD2.0.H264.CC-DLxx.mkv
Format : Matroska
Format version : Version 4 / Version 2
File size : 864 MiB
Duration : 22 min 36s
Overall bit rate : 5.340 kb/s
Encoded date : UTC 2016-11-06 22:35:07
Writing application : mkvmerge v9.4.2 ('So High') 64bit
Writing library : libebml v1.3.4 + libmatroska v1.4.5

Wideo
ID : 1
Format : AVC
Format/Info : Advanced Video Codec
Format profile : High@L4
Format settings, CABAC : Tak
Format settings, ReFrames : 4 klatki
Codec ID : V_MPEG4/ISO/AVC
Duration : 22 min 36s
Bit rate : 5.146 kb/s
Width : 1.920 pikseli
Height : 1.080 pikseli
Display aspect ratio : 16:9
Frame rate mode : Stały
Frame rate : 23,976 (23976/1000) kl/s
Color space : YUV
Chroma subsampling : 4:2:0
Bit depth : 8 bitów
Scan type : Progresywny
Bits/(Pixel*Frame) : 0.104
Stream size : 832 MiB (96%)
Language : Angielski
Default : Tak
Forced : Nie
Color range : Limited
Color primaries : BT.709
Transfer characteristics : BT.709
Matrix coefficients : BT.709

Audio
ID : 2
Format : AC-3
Format/Info : Audio Coding 3
Mode extension : CM (complete main)
Format settings, Endianness : Big
Codec ID : A_AC3
Duration : 22 min 36s
Bit rate mode : Stała
Bit rate : 192 kb/s
Channel(s) : 2 kanały
Channel positions : Front: L R
Sampling rate : 48,0 kHz
Frame rate : 31,250 kl/s (1536 spf)
Stream size : 31,1 MiB (4%)
Language : Polski
Default : Tak
Forced : Nie

Kod:
Tekst widoczny dla zalogowanych.

Kod:
Tekst widoczny dla zalogowanych.
_____
Jeżeli pobrałeś albo spodobał Ci się mój post lub obejrzałeś moje materiały kliknij dziękuję to nic Cię nie kosztuje i za wszystkie bardzo dziękuje!!! :dziękuję:

Obraz
Sygnatura•••
Podziękowania dla autora posta:
Mysz
Nie ma w serwisiegrzegorzjKopiuj nick
grzegorzj

Płeć:
Dołączył:
Punkty: 818$
Podziękowania: 120
Posty: 244
Dubbing PL / PL
ocenił na: 0
Elena z Avaloru.S01E05.PLDUB.WEBRip.XviD.avi

Rozmiar pliku: 226 MB
Czas trwania: 00:22:36
Format: AVI. kodek: XVID
Video bitrate: 1 200 Kbps
Video rozdzielczość: 640x360
Audio bitrate: 128 Kbps


Kod:
Tekst widoczny dla zalogowanych.
Podziękowania dla autora posta:
Mysz, anex33, sokolnic
Jest w serwisieyenxKopiuj nick
yenx

Płeć:
Dołączył:
Punkty: 106759$
Podziękowania: 2231
Posty: 5459
Dubbing PL / PL
ocenił na: 0
Elena z Avaloru / Elena of Avalor (2016) S01E07 PL.1080p.WEB-DL.DD2.0.H264.CC | Dubbing PL
Ogólne
Unique ID : 217683794756302008261250619047530698754 (0xA3C45FB6226972EC8734290451F79802)
Complete name : Elena.of.Avalor.S01E07.Finders.Leapers.PL.1080p.WEB-DL.DD2.0.H264.CC.mkv
Format : Matroska
Format version : Version 4 / Version 2
File size : 856 MiB
Duration : 22 min 36s
Overall bit rate : 5.291 kb/s
Encoded date : UTC 2016-11-12 16:34:39
Writing application : mkvmerge v9.4.2 ('So High') 64bit
Writing library : libebml v1.3.4 + libmatroska v1.4.5

Wideo
ID : 1
Format : AVC
Format/Info : Advanced Video Codec
Format profile : High@L4
Format settings, CABAC : Tak
Format settings, ReFrames : 4 klatki
Codec ID : V_MPEG4/ISO/AVC
Duration : 22 min 36s
Bit rate : 5.097 kb/s
Width : 1.920 pikseli
Height : 1.080 pikseli
Display aspect ratio : 16:9
Frame rate mode : Stały
Frame rate : 23,976 (23976/1000) kl/s
Color space : YUV
Chroma subsampling : 4:2:0
Bit depth : 8 bitów
Scan type : Progresywny
Bits/(Pixel*Frame) : 0.103
Stream size : 824 MiB (96%)
Language : Angielski
Default : Tak
Forced : Nie
Color range : Limited
Color primaries : BT.709
Transfer characteristics : BT.709
Matrix coefficients : BT.709

Audio
ID : 2
Format : AC-3
Format/Info : Audio Coding 3
Mode extension : CM (complete main)
Format settings, Endianness : Big
Codec ID : A_AC3
Duration : 22 min 36s
Bit rate mode : Stała
Bit rate : 192 kb/s
Channel(s) : 2 kanały
Channel positions : Front: L R
Sampling rate : 48,0 kHz
Frame rate : 31,250 kl/s (1536 spf)
Stream size : 31,1 MiB (4%)
Language : Polski
Default : Tak
Forced : Nie

Kod:
Tekst widoczny dla zalogowanych.

Kod:
Tekst widoczny dla zalogowanych.
_____
Jeżeli pobrałeś albo spodobał Ci się mój post lub obejrzałeś moje materiały kliknij dziękuję to nic Cię nie kosztuje i za wszystkie bardzo dziękuje!!! :dziękuję:

Obraz
Sygnatura•••
Jest w serwisieyenxKopiuj nick
yenx

Płeć:
Dołączył:
Punkty: 106759$
Podziękowania: 2231
Posty: 5459
Dubbing PL / PL
ocenił na: 0
Elena z Avaloru / Elena of Avalor (2016) S01E06 PL.1080p.WEB-DL.DD2.0.H264.CC | Dubbing PL
Ogólne
Unique ID : 216136903738309934904735143769019796935 (0xA29A74188E01FD378631BE2E25244DC7)
Complete name : Elena.of.Avalor.S01E06.Prince.Too.Charming.PL.1080p.WEB-DL.DD2.0.H264.CC.mkv
Format : Matroska
Format version : Version 4 / Version 2
File size : 862 MiB
Duration : 22 min 36s
Overall bit rate : 5.331 kb/s
Encoded date : UTC 2016-11-13 14:28:12
Writing application : mkvmerge v9.4.2 ('So High') 64bit
Writing library : libebml v1.3.4 + libmatroska v1.4.5

Wideo
ID : 1
Format : AVC
Format/Info : Advanced Video Codec
Format profile : High@L4
Format settings, CABAC : Tak
Format settings, ReFrames : 4 klatki
Codec ID : V_MPEG4/ISO/AVC
Duration : 22 min 36s
Bit rate : 5.137 kb/s
Width : 1.920 pikseli
Height : 1.080 pikseli
Display aspect ratio : 16:9
Frame rate mode : Stały
Frame rate : 23,976 (23976/1000) kl/s
Color space : YUV
Chroma subsampling : 4:2:0
Bit depth : 8 bitów
Scan type : Progresywny
Bits/(Pixel*Frame) : 0.103
Stream size : 831 MiB (96%)
Language : Angielski
Default : Tak
Forced : Nie
Color range : Limited
Color primaries : BT.709
Transfer characteristics : BT.709
Matrix coefficients : BT.709

Audio
ID : 2
Format : AC-3
Format/Info : Audio Coding 3
Mode extension : CM (complete main)
Format settings, Endianness : Big
Codec ID : A_AC3
Duration : 22 min 36s
Bit rate mode : Stała
Bit rate : 192 kb/s
Channel(s) : 2 kanały
Channel positions : Front: L R
Sampling rate : 48,0 kHz
Frame rate : 31,250 kl/s (1536 spf)
Stream size : 31,1 MiB (4%)
Language : Polski
Default : Tak
Forced : Nie

Kod:
Tekst widoczny dla zalogowanych.

Kod:
Tekst widoczny dla zalogowanych.
_____
Jeżeli pobrałeś albo spodobał Ci się mój post lub obejrzałeś moje materiały kliknij dziękuję to nic Cię nie kosztuje i za wszystkie bardzo dziękuje!!! :dziękuję:

Obraz
Sygnatura•••
Podziękowania dla autora posta:
Florianek