Zaloguj
Egzorcysta

Animowany Dla młodzieży
Kreskówka, 2017
0,00  głosy: 0Oceń:
Ulubiony
Do obejrzenia
Obejrzany
Premiera:
1 listopada 2017Polska
Produkcja:

Dodaj sezon
Nie ma w serwisieCondomPackKopiuj nick
4%
CondomPack

Płeć:
Dołączył:
Punkty: 1338$
Podziękowania: 24
Posty: 40
Dubbing PL / PL
ocenił na: 0
Egzorcysta 2017 [1x01] Spadek
(1080p ShowMax WEBRip x265 10bit HEVC AAC B201) | 136 MB
Wydanie zawiera angielskie napisy

General
Format : Matroska
Format version : Version 4 / Version 2
File size : 137 MiB
Duration : 11 min 8 s
Overall bit rate : 1 716 kb/s
Movie name : Egzorcysta [1x01] Spadek
Encoded date : UTC 2018-01-27 18:05:46
Writing application : mkvmerge v19.0.0 ('Brave Captain') 64-bit
Writing library : libebml v1.3.5 + libmatroska v1.4.8

Video
ID : 1
Format : HEVC
Format/Info : High Efficiency Video Coding
Format profile : Main 10@L4@Main
Codec ID : V_MPEGH/ISO/HEVC
Duration : 11 min 8 s
Bit rate : 1 614 kb/s
Width : 1 920 pixels
Height : 1 080 pixels
Display aspect ratio : 16:9
Frame rate mode : Constant
Frame rate : 24.919 FPS
Color space : YUV
Chroma subsampling : 4:2:0
Bit depth : 10 bits
Bits/(Pixel*Frame) : 0.031
Stream size : 129 MiB (94%)
Title : B201
Writing library : x265 2.5+14-2718cb5dd67f:[Windows][GCC 7.1.0][64 bit] 10bit
Encoding settings : cpuid=1173503 / frame-threads=2 / numa-pools=4 / wpp / no-pmode / no-pme / no-psnr / no-ssim / log-level=2 / input-csp=1 / input-res=1920x1080 / interlace=0 / total-frames=16664 / level-idc=0 / high-tier=1 / uhd-bd=0 / ref=3 / no-allow-non-conformance / no-repeat-headers / annexb / no-aud / no-hrd / info / hash=0 / no-temporal-layers / open-gop / min-keyint=24 / keyint=250 / bframes=8 / b-adapt=2 / b-pyramid / bframe-bias=0 / rc-lookahead=80 / lookahead-slices=6 / scenecut=40 / no-intra-refresh / ctu=64 / min-cu-size=8 / no-rect / no-amp / max-tu-size=32 / tu-inter-depth=1 / tu-intra-depth=1 / limit-tu=0 / rdoq-level=0 / dynamic-rd=0.00 / no-ssim-rd / signhide / no-tskip / nr-intra=0 / nr-inter=0 / no-constrained-intra / no-strong-intra-smoothing / max-merge=2 / limit-refs=3 / no-limit-modes / me=1 / subme=2 / merange=57 / temporal-mvp / weightp / no-weightb / no-analyze-src-pics / deblock=-1:-1 / no-sao / no-sao-non-deblock / rd=3 / no-early-skip / no-rskip / no-fast-intra / no-tskip-fast / no-cu-lossless / b-intra / no-splitrd-skip / rdpenalty=0 / psy-rd=1.00 / psy-rdoq=0.00 / no-rd-refine / analysis-reuse-mode=0 / no-lossless / cbqpoffs=-3 / crqpoffs=-3 / rc=crf / crf=22.0 / qcomp=0.60 / qpstep=4 / stats-write=0 / stats-read=0 / ipratio=1.40 / pbratio=1.30 / aq-mode=3 / aq-strength=1.00 / cutree / zone-count=0 / no-strict-cbr / qg-size=32 / no-rc-grain / qpmax=69 / qpmin=0 / no-const-vbv / sar=0 / overscan=0 / videoformat=5 / range=0 / colorprim=2 / transfer=2 / colormatrix=2 / chromaloc=0 / display-window=0 / max-cll=0,0 / min-luma=0 / max-luma=1023 / log2-max-poc-lsb=8 / vui-timing-info / vui-hrd-info / slices=1 / opt-qp-pps / opt-ref-list-length-pps / no-multi-pass-opt-rps / scenecut-bias=0.05 / no-opt-cu-delta-qp / no-aq-motion / no-hdr / no-hdr-opt / no-dhdr10-opt / analysis-reuse-level=5 / scale-factor=0 / refine-intra=0 / refine-inter=0 / refine-mv=0 / no-limit-sao / ctu-info=0
Default : Yes
Forced : No

Audio
ID : 2
Format : AAC
Format/Info : Advanced Audio Codec
Format profile : LC
Codec ID : A_AAC-2
Duration : 11 min 8 s
Bit rate : 99.7 kb/s
Channel(s) : 2 channels
Channel positions : Front: L R
Sampling rate : 48.0 kHz
Frame rate : 46.875 FPS (1024 SPF)
Compression mode : Lossy
Stream size : 7.94 MiB (6%)
Title : B201
Language : Polish
Default : No
Forced : No

Text
ID : 3
Format : UTF-8
Codec ID : S_TEXT/UTF8
Codec ID/Info : UTF-8 Plain Text
Duration : 10 min 59 s
Bit rate : 81 b/s
Count of elements : 189
Stream size : 6.56 KiB (0%)
Title : B201
Language : English
Default : No
Forced : No



Kod:
Tekst widoczny dla zalogowanych.
_____
Wszystkie moje wstawki są w formacie x265 HEVC więc wymagny jest odpowiedni odtwarzacz (VLC) wraz ze sprzętowym dekodowaniem (nVidia
10XX), telewizor SmartTV nowszy niż 2015 rok (choć nie każdy)

Pozdrawiam, CondomPack
Sygnatura•••
Jest w serwisieyenxKopiuj nick
yenx

Płeć:
Dołączył:
Punkty: 117712$
Podziękowania: 2478
Posty: 6717
Dubbing PL / PL
ocenił na: 0
Egzorcysta.S01E01-E13.PL.1080p.WEBRip.x264.AC3-manio750 / Polska produkcja

~# DANE TECHNiCZNE / RELEASE .iNFO #~

Dane techniczne przykładowego odcinka:
Format : Matroska at 5.546 kb/s
Length : 435 MiB for 10 min 57s 616 ms

Video #0 : AVC at 5.160 kb/s
Aspect : 1920 x 1080 (1.778) at 29.970 fps

Audio #0 : AC-3 at 384 kb/s
Infos : 2 kanały, 48,0 kHz


~# ZDJĘCiA / SCREENS #~



~# POBiERZ / DOWNLOAD #~

Obraz
Kod:
Tekst widoczny dla zalogowanych.

Obraz
Kod:
Tekst widoczny dla zalogowanych.
_____
Jeżeli pobrałeś albo spodobał Ci się mój post lub obejrzałeś moje materiały kliknij dziękuję to nic Cię nie kosztuje i za wszystkie bardzo dziękuje!!! :dziękuję:

Obraz
Sygnatura•••
Podziękowania dla autora posta:
CondomPack
Jest w serwisieyenxKopiuj nick
yenx

Płeć:
Dołączył:
Punkty: 117712$
Podziękowania: 2478
Posty: 6717
Dubbing PL / PL
ocenił na: 0
Egzorcysta (2017) [Sezon 1]
PLDUB.720p.WEBRip.XviD.AC3-KRT / Polska Produkcja


~# DANE TECHNiCZNE / RELEASE .iNFO #~

Dane techniczne przykładowego odcinka:
Format : AVI at 3 170 Kbps
Length : 249 MiB for 11mn 0s 280ms

Video #0 : MPEG-4 Visual at 2 968 Kbps
Aspect : 1280 x 574 (2.230) at 25.000 fps

Audio #0 : AC-3 at 192 Kbps
Infos : 2 channels, 48.0 KHz

S: SZOŁMAX


~# ZDJĘCiA / SCREENS #~



~# POBiERZ / DOWNLOAD #~

Obraz
Kod:
Tekst widoczny dla zalogowanych.

Obraz
Kod:
Tekst widoczny dla zalogowanych.
_____
Jeżeli pobrałeś albo spodobał Ci się mój post lub obejrzałeś moje materiały kliknij dziękuję to nic Cię nie kosztuje i za wszystkie bardzo dziękuje!!! :dziękuję:

Obraz
Sygnatura•••
Jest w serwisieyenxKopiuj nick
yenx

Płeć:
Dołączył:
Punkty: 117712$
Podziękowania: 2478
Posty: 6717
Dubbing PL / PL
ocenił na: 0
Egzorcysta.S01E01-E13.PL.1080p.WEBRip.x264.AC3-manio750 / Polska produkcja

~# DANE TECHNiCZNE / RELEASE .iNFO #~

Dane techniczne przykładowego odcinka:
Format : Matroska at 5.546 kb/s
Length : 435 MiB for 10 min 57s 616 ms

Video #0 : AVC at 5.160 kb/s
Aspect : 1920 x 1080 (1.778) at 29.970 fps

Audio #0 : AC-3 at 384 kb/s
Infos : 2 kanały, 48,0 kHz


~# ZDJĘCiA / SCREENS #~



~# POBiERZ / DOWNLOAD #~

Obraz
Kod:
Tekst widoczny dla zalogowanych.

Obraz
Kod:
Tekst widoczny dla zalogowanych.
_____
Jeżeli pobrałeś albo spodobał Ci się mój post lub obejrzałeś moje materiały kliknij dziękuję to nic Cię nie kosztuje i za wszystkie bardzo dziękuje!!! :dziękuję:

Obraz
Sygnatura•••