Zaloguj
Dzieciaki straszaki

Super Monsters
Kreskówka, 2017
10,00  głosy: 1Oceń:
Ulubiony
Do obejrzenia
Obejrzany
Premiera:
13 października 2017Polska13 października 2017
Produkcja:

Dodaj sezon
Jest w serwisieyenxKopiuj nick
yenx

Płeć:
Dołączył:
Punkty: 106759$
Podziękowania: 2231
Posty: 5459
Dubbing PL / PL
ocenił na: 0
Dzieciaki straszaki / Super Monsters (2017) S01 768p.NF.WEBRip.x264.aac | Audio: Dubbing PL

Ogólne
Complete name : DS (1).mp4
Format : MPEG-4
Format profile : Base Media
Codec ID : isom (isom/iso2/avc1/mp41)
File size : 211 MiB
Duration : 21 min 2s
Overall bit rate mode : Zmienna
Overall bit rate : 1.399 kb/s
Writing application : Lavf54.63.104

Wideo
ID : 1
Format : AVC
Format/Info : Advanced Video Codec
Format profile : Main@L3.2
Format settings, CABAC : Tak
Format settings, ReFrames : 1 klatka
Codec ID : avc1
Codec ID/Info : Advanced Video Coding
Duration : 21 min 2s
Bit rate : 1.243 kb/s
Width : 1.360 pikseli
Height : 768 pikseli
Display aspect ratio : 16:9
Frame rate mode : Zmienny
Frame rate : 24,722 kl/s
Minimum frame rate : 15,000 kl/s
Maximum frame rate : 30,000 kl/s
Color space : YUV
Chroma subsampling : 4:2:0
Bit depth : 8 bitów
Scan type : Progresywny
Bits/(Pixel*Frame) : 0.048
Stream size : 187 MiB (89%)
Writing library : x264 core 129
Encoding settings : cabac=1 / ref=1 / deblock=1:0:0 / analyse=0x1:0x131 / me=dia / subme=2 / psy=1 / psy_rd=1.00:0.00 / mixed_ref=0 / me_range=16 / chroma_me=1 / trellis=0 / 8x8dct=0 / cqm=0 / deadzone=21,11 / fast_pskip=1 / chroma_qp_offset=0 / threads=4 / lookahead_threads=1 / sliced_threads=0 / nr=0 / decimate=1 / interlaced=0 / bluray_compat=0 / constrained_intra=0 / bframes=0 / weightp=2 / keyint=250 / keyint_min=25 / scenecut=40 / intra_refresh=0 / rc_lookahead=40 / rc=abr / mbtree=1 / bitrate=1243 / ratetol=1.0 / qcomp=0.60 / qpmin=10 / qpmax=51 / qpstep=4 / ip_ratio=1.41 / aq=1:1.00

Audio
ID : 2
Format : AAC
Format/Info : Advanced Audio Codec
Format profile : LC
Codec ID : 40
Duration : 21 min 2s
Duration_FirstFrame : 70 ms
Bit rate mode : Zmienna
Bit rate : 152 kb/s
Maximum bit rate : 176 kb/s
Channel(s) : 2 kanały
Channel positions : Front: L R
Sampling rate : 44,1 kHz
Frame rate : 43,066 kl/s (1024 SPF)
Stream size : 22,8 MiB (11%)
Default : Tak
Alternate group : 1

Source: damianradek

Kod:
Tekst widoczny dla zalogowanych.

Kod:
Tekst widoczny dla zalogowanych.
_____
Jeżeli pobrałeś albo spodobał Ci się mój post lub obejrzałeś moje materiały kliknij dziękuję to nic Cię nie kosztuje i za wszystkie bardzo dziękuje!!! :dziękuję:

Obraz
Sygnatura•••
Podziękowania dla autora posta:
rotfly
Jest w serwisieyenxKopiuj nick
yenx

Płeć:
Dołączył:
Punkty: 106759$
Podziękowania: 2231
Posty: 5459
Dubbing PL / PL
ocenił na: 0
Dzieciaki straszaki / Super Monsters (2017) [Sezon 1]
PL.DUB.720p.WEB.x264-eend / Dubbing PL


~# DANE TECHNiCZNE / RELEASE .iNFO #~

Dane techniczne przykładowego odcinka:
Rozmiar pliku: 478.9 MiB , Czas trwania: 00:23:10 , Ogólne bitrate pliku: 2 888 Kbps , Format: Matroska , Video FPS: 23.976 , Video bitrate: 2 511 Kbps , Video rozdzielczość: 1280x720 , Video rozmiar: 416 MiB (87%) , Video proporcje obrazu: 16:9 , Audio format: MPEG Audio , Audio bitrate: 320 Kbps , Audio liczba kanałów: 2 , Audio sampling rate: 48.0 KHz , Audio resolution: Audio rozmiar: 53.1 MiB (11%)


~# ZDJĘCiA / SCREENS #~



~# POBiERZ / DOWNLOAD #~

Obraz
Kod:
Tekst widoczny dla zalogowanych.

Obraz
Kod:
Tekst widoczny dla zalogowanych.

Obraz
Kod:
Tekst widoczny dla zalogowanych.
_____
Jeżeli pobrałeś albo spodobał Ci się mój post lub obejrzałeś moje materiały kliknij dziękuję to nic Cię nie kosztuje i za wszystkie bardzo dziękuje!!! :dziękuję:

Obraz
Sygnatura•••
HEROES

Płeć:
Dołączył:
Punkty: 82234$
Podziękowania: 2252
Posty: 18836
Dubbing PL / PL
ocenił na: 0
Dzieciaki straszaki / Super Monsters (2017) {Sezon 1}
PLDUB.720p.WEB.x264-J / Dubbing PL


Release : Super.Monsters.2017.PLDUB.S01E01.720p.WEB.x264-J
Format : Matroska at 2.614 kb/s
Length : 432 MiB for 23 min 6s 656 ms
Video #0 : AVC at 2.229 kb/s
Aspect : 1280 x 720 (1.778) at 23.976 fps
Audio #0 : AC-3 at 384 kb/s
Infos : 6 kanałów, 48,0 kHz
Language : pl
Wielkość Uploadu: 4,22 GB (Całość)


Kod:
Tekst widoczny dla zalogowanych.


Kod:
Tekst widoczny dla zalogowanych.


Kod:
Tekst widoczny dla zalogowanych.


Kod:
Tekst widoczny dla zalogowanych.


Kod:
Tekst widoczny dla zalogowanych.
_____
Obraz
Sygnatura•••