Glitter Force (2012)

Informacje o produkcjiDodaj sezonDodaj rozmowy
Nie ma w serwisieSonicDashKopiuj nick
10,7%
SonicDash

Płeć: Mężczyzna
Dołączył:
Punkty: 30$
Podziękowania: 110
Posty: 107
Dubbing PL / PL
ocenił na: 0
Saban Glitter Force [znany w Japonii jako Smile PreCure!]

Dane techniczne :
Spoiler
General
Unique ID : 1035516502898710892368149154560712955 (0xC76EE7C6088654F521690C0023A0FB)
Complete name : E:\cootass\G.FORCE.S1E1.mkv
Format : Matroska
File size : 607 MiB
Duration : 24mn 46s
Overall bit rate : 3 423 Kbps
Writing application : Lavf56.25.101
Writing library : Lavf56.25.101

Video
ID : 1
Format : AVC
Format/Info : Advanced Video Codec
Format profile : Main@L3.1
Format settings, CABAC : Yes
Format settings, ReFrames : 4 frames
Codec ID : V_MPEG4/ISO/AVC
Duration : 24mn 46s
Bit rate : 3 035 Kbps
Width : 1 280 pixels
Height : 720 pixels
Display aspect ratio : 16:9
Frame rate : 29.970 fps
Color space : YUV
Chroma subsampling : 4:2:0
Bit depth : 8 bits
Scan type : Progressive
Bits/(Pixel*Frame) : 0.110
Stream size : 538 MiB (89%)
Language : English

Audio
ID : 2
Format : MPEG Audio
Format version : Version 1
Format profile : Layer 3
Mode : Joint stereo
Codec ID : A_MPEG/L3
Codec ID/Hint : MP3
Duration : 24mn 46s
Bit rate mode : Constant
Bit rate : 320 Kbps
Channel(s) : 2 channels
Sampling rate : 48.0 KHz
Compression mode : Lossy
Delay relative to video : 1mn 5s
Stream size : 56.7 MiB (9%)
Writing library : LAMEä2
Language : English

Linki :
OPENLOAD
Kod:
Tekst widoczny dla zalogowanych.

OBOOM
Kod:
Tekst widoczny dla zalogowanych.

SHAREHOST
Kod:
Tekst widoczny dla zalogowanych.

UPFILES
Kod:
Tekst widoczny dla zalogowanych.

Kod:
Tekst widoczny dla zalogowanych.
_____
Masz zlecenie na jakiś materiał do nagrania? Pisz na PW.
Sygnatura•••
Nie ma w serwisieyenxKopiuj nick
yenx

Płeć: Mężczyzna
Dołączył:
Punkty: 96434$
Podziękowania: 2029
Posty: 4501
Dubbing PL / PL
ocenił na: 0
Glitter Force / Smile Pretty Cure! / Smile Precure! / Sumairu PuriKyua! (2012–2013) S01-02 720p.WEBRip.PL.DUB.x264-eend / Dubbing PL
RELEASE iNFO:
Dane techniczne przykładowego odcinka:
Paczka zawiera pełne dwa sezony po 20 cześci każdy. Rozmiar pliku: 606.2 MiB , Czas trwania: 00:24:46 , Ogólne bitrate pliku: 3 421 Kbps , Format: Matroska , Video FPS: 29.970 , Video kodek: Video bitrate: 3 033 Kbps , Video rozdzielczość: 1280x720 , Video rozmiar: 537 MiB (89%) , Video proporcje obrazu: 16:9 , Source Video: od grupy -GDR. [Thanks!].

Audio format: MPEG Audio , Audio bitrate: 128 Kbps , Audio liczba kanałów: 2 , Audio sampling rate: 32.0 KHz , Audio rozmiar: 25.8 MiB (9%) Source Audio:PL od SonicDash[Thanks!]

SCREEN/ZDJĘCiA

Obraz
Kod:
Tekst widoczny dla zalogowanych.

Obraz
Kod:
Tekst widoczny dla zalogowanych.

Obraz
Kod:
Tekst widoczny dla zalogowanych.
_____
Jeżeli pobrałeś albo spodobał Ci się mój post lub obejrzałeś moje materiały kliknij dziękuję to nic Cię nie kosztuje i za wszystkie bardzo dziękuje!!! :dziękuję:

Obraz
Sygnatura•••