Zaloguj
Avengers: Zjednoczeni

Marvel's Avengers Assemble
Kreskówka, 2013
9,29  głosy: 24Oceń:
Ulubiony
Do obejrzenia
Obejrzany
Premiera:
17 października 2013Polska26 maja 2013
Produkcja:

Dodaj sezon
Jest w serwisieyenxKopiuj nick
yenx

Płeć:
Dołączył:
Punkty: 106759$
Podziękowania: 2231
Posty: 5459
Dubbing PL / PL
ocenił na: 0
Avengers: Tajne wojny / Marvel's Avengers Secret Wars (2017) S04 Multi.1080p.WEB-DL.DD5.1.DD2.0.AAC2.0.H264-YFN | Audio: Dubbing PL + Angielski

Ogólne
Unique ID : 200011306248663990903844098675844355359 (0x9678C6C1A0CD17819301D4879890951F)
Complete name : Avengers.Secret.Wars.S04E01.Avengers.No.More.Part.1.Multi.1080p.WEB-DL.DD5.1.DD2.0.AAC2.0.H264-YFN.mkv
Format : Matroska
Format version : Version 4 / Version 2
File size : 921 MiB
Duration : 22 min 7s
Overall bit rate : 5.819 kb/s
Encoded date : UTC 2017-09-29 22:46:31
Writing application : mkvmerge v15.0.0 ('Duel with the Devil') 64-bit
Writing library : libebml v1.3.5 + libmatroska v1.4.5

Wideo
ID : 1
Format : AVC
Format/Info : Advanced Video Codec
Format profile : High@L4
Format settings, CABAC : Tak
Format settings, ReFrames : 4 klatki
Codec ID : V_MPEG4/ISO/AVC
Duration : 22 min 7s
Bit rate : 5.083 kb/s
Width : 1.920 pikseli
Height : 1.080 pikseli
Display aspect ratio : 16:9
Frame rate mode : Stały
Frame rate : 23,976 (24000/1001) kl/s
Color space : YUV
Chroma subsampling : 4:2:0
Bit depth : 8 bitów
Scan type : Progresywny
Bits/(Pixel*Frame) : 0.102
Stream size : 804 MiB (87%)
Title : H.264
Language : Angielski
Default : Tak
Forced : Nie
Color range : Limited
Color primaries : BT.709
Transfer characteristics : BT.709
Matrix coefficients : BT.709

Audio #1
ID : 2
Format : AC-3
Format/Info : Audio Coding 3
Format settings, Endianness : Big
Codec ID : A_AC3
Duration : 22 min 7s
Bit rate mode : Stała
Bit rate : 192 kb/s
Channel(s) : 2 kanały
Channel positions : Front: L R
Sampling rate : 48,0 kHz
Frame rate : 31,250 kl/s (1536 SPF)
Bit depth : 16 bitów
Stream size : 30,4 MiB (3%)
Language : Polski
Service kind : Complete Main
Default : Tak
Forced : Nie

Audio #2
ID : 3
Format : AC-3
Format/Info : Audio Coding 3
Format settings, Endianness : Big
Codec ID : A_AC3
Duration : 22 min 7s
Bit rate mode : Stała
Bit rate : 384 kb/s
Channel(s) : 6 kanałów
Channel positions : Front: L C R, Side: L R, LFE
Sampling rate : 48,0 kHz
Frame rate : 31,250 kl/s (1536 SPF)
Bit depth : 16 bitów
Stream size : 60,8 MiB (7%)
Title : DD5.1
Language : Angielski
Service kind : Complete Main
Default : Nie
Forced : Nie

Audio #3
ID : 4
Format : AAC
Format/Info : Advanced Audio Codec
Format profile : LC
Codec ID : A_AAC
Duration : 22 min 7s
Bit rate : 158 kb/s
Channel(s) : 2 kanały
Channel positions : Front: L R
Sampling rate : 48,0 kHz
Frame rate : 46,875 kl/s (1024 SPF)
Stream size : 24,9 MiB (3%)
Title : AAC2.0
Language : Angielski
Default : Nie
Forced : Nie

Tekst
ID : 5
Format : UTF-8
Codec ID : S_TEXT/UTF8
Codec ID/Info : UTF-8 Plain Text
Duration : 21 min 29s
Bit rate : 75 b/s
Count of elements : 388
Stream size : 11,9 KiB (0%)
Title : CC
Language : Angielski
Default : Nie
Forced : Nie

Kod:
Tekst widoczny dla zalogowanych.

Kod:
Tekst widoczny dla zalogowanych.
_____
Jeżeli pobrałeś albo spodobał Ci się mój post lub obejrzałeś moje materiały kliknij dziękuję to nic Cię nie kosztuje i za wszystkie bardzo dziękuje!!! :dziękuję:

Obraz
Sygnatura•••
Podziękowania dla autora posta:
Maniek123404, Nillay, Shirya, fefes, Abissor
Jest w serwisieyenxKopiuj nick
yenx

Płeć:
Dołączył:
Punkty: 106759$
Podziękowania: 2231
Posty: 5459
Dubbing PL / PL
ocenił na: 0
Avengers: Tajne wojny / Marvel's Avengers Secret Wars (2017) S04 Multi.1080p.WEB-DL.DD5.1.DD2.0.AAC2.0.H264-YFN | Audio: Dubbing PL + Angielski
up na catshare
Kod:
Tekst widoczny dla zalogowanych.
_____
Jeżeli pobrałeś albo spodobał Ci się mój post lub obejrzałeś moje materiały kliknij dziękuję to nic Cię nie kosztuje i za wszystkie bardzo dziękuje!!! :dziękuję:

Obraz
Sygnatura•••